<?xml version="1.0" standalone="no"?>
<!DOCTYPE svg PUBLIC "-//W3C//DTD SVG 1.1//EN" "http://www.w3.org/Graphics/SVG/1.1/DTD/svg11.dtd" >
<svg xmlns="http://www.w3.org/2000/svg" xmlns:xlink="http://www.w3.org/1999/xlink" version="1.1">
<metadata>
Created by FontForge 20170731 at Wed Oct 28 20:58:09 2020
 By Aleksey,,,
Copyright 2019 The Karla Project Authors (https://github.com/googlefonts/karla)
</metadata>
<defs>
<font id="Karla-Medium" horiz-adv-x="1200" >
  <font-face 
    font-family="Karla Medium"
    font-weight="500"
    font-stretch="normal"
    units-per-em="2000"
    panose-1="2 11 0 4 3 5 3 3 0 3"
    ascent="1600"
    descent="-400"
    x-height="962"
    cap-height="1274"
    bbox="-276.484 -496 2308 1975"
    underline-thickness="50"
    underline-position="-175"
    unicode-range="U+000D-FB02"
  />
<missing-glyph horiz-adv-x="1031" 
d="M10 1645h1011v-1640h-1011v1640zM0 1655v-1660h1031v1660h-1031zM1021 5q-91 133 -179.5 284.5t-180.5 316.5t-192 339t-213.5 350.5t-245.5 349.5q139 -228 269 -451.5t254.5 -434t246 -401.5t241.5 -353zM10 5q120 162 241.5 353t246 401.5t254.5 434t269 451.5
q-132 -173 -245.5 -349.5t-213.5 -350.5t-192 -339t-180.5 -316.5t-179.5 -284.5z" />
    <glyph glyph-name="fi" unicode="fi" horiz-adv-x="1329" 
d="M249 0v1097q0 100 38.5 162.5t102.5 92.5t141 30q44 0 90.5 -6t91.5 -18l-36 -148q-28 10 -56.5 16t-54.5 6q-31 0 -60 -11.5t-47.5 -41.5t-18.5 -85v-1094h-191zM98 833v129h531v-129h-531zM1011 1167q-57 0 -89.5 31.5t-32.5 85.5q0 52 32.5 82.5t89.5 30.5
q56 0 88.5 -30.5t32.5 -82.5q0 -54 -32.5 -85.5t-88.5 -31.5zM916 0v965h190v-965h-190z" />
    <glyph glyph-name="fl" unicode="fl" horiz-adv-x="1287" 
d="M249 0v1097q0 100 38.5 162.5t102.5 92.5t141 30q44 0 90.5 -6t91.5 -18l-36 -148q-28 10 -56.5 16t-54.5 6q-31 0 -60 -11.5t-47.5 -41.5t-18.5 -85v-1094h-191zM98 833v129h531v-129h-531zM901 0v1367h190v-1367h-190z" />
    <glyph glyph-name=".notdef" horiz-adv-x="1031" 
d="M10 1645h1011v-1640h-1011v1640zM0 1655v-1660h1031v1660h-1031zM1021 5q-91 133 -179.5 284.5t-180.5 316.5t-192 339t-213.5 350.5t-245.5 349.5q139 -228 269 -451.5t254.5 -434t246 -401.5t241.5 -353zM10 5q120 162 241.5 353t246 401.5t254.5 434t269 451.5
q-132 -173 -245.5 -349.5t-213.5 -350.5t-192 -339t-180.5 -316.5t-179.5 -284.5z" />
    <glyph glyph-name=".null" 
 />
    <glyph glyph-name="nonmarkingreturn" horiz-adv-x="666" 
 />
    <glyph glyph-name="CR" unicode="&#xd;" 
 />
    <glyph glyph-name="space" unicode=" " horiz-adv-x="488" 
 />
    <glyph glyph-name="exclam" unicode="!" horiz-adv-x="568" 
d="M209 388l-22 896h204l-23 -896h-159zM289 -18q-60 0 -98.5 37.5t-38.5 93.5t38.5 94.5t98.5 38.5q59 0 99.5 -38.5t40.5 -94.5t-40.5 -93.5t-99.5 -37.5z" />
    <glyph glyph-name="quotedbl" unicode="&#x22;" horiz-adv-x="675" 
d="M448 912l-25 455h193l-26 -455h-142zM85 912l-25 455h193l-26 -455h-142z" />
    <glyph glyph-name="numbersign" unicode="#" horiz-adv-x="1296" 
d="M274 64l29 271h-194l12 126h194l37 341h-195l13 126h195l28 268h179l-28 -268h292l29 268h177l-27 -268h196l-14 -126h-197l-34 -341h197l-14 -126h-197l-29 -271h-178l29 271h-293l-29 -271h-178zM494 461h292l37 341h-293z" />
    <glyph glyph-name="dollar" unicode="$" horiz-adv-x="1311" 
d="M668 -26q-107 0 -203.5 26t-171 77t-116.5 129t-42 183h186q0 -84 43.5 -137t123.5 -78t188 -25q97 0 160.5 26.5t95 70.5t31.5 96q0 67 -43.5 114.5t-124.5 74.5l-134 48v167l221 -75q143 -48 219 -127t76 -207q0 -91 -55 -174t-168 -136t-286 -53zM585 -191v1636h142
v-1636h-142zM627 577l-121 41q-166 55 -254 130.5t-88 208.5q0 151 125 245.5t362 94.5q218 0 334.5 -95t143.5 -255h-190q-15 82 -88.5 134t-202.5 52q-137 0 -207.5 -51.5t-70.5 -130.5q0 -62 37 -99.5t118 -64.5l102 -40v-170z" />
    <glyph glyph-name="percent" unicode="%" horiz-adv-x="1484" 
d="M218 0l860 1274h195l-860 -1274h-195zM1108 -21q-69 0 -128.5 33t-96.5 98.5t-37 163.5t37 163t96.5 98t128.5 33q71 0 131.5 -33t97 -98t36.5 -163t-36.5 -163.5t-97 -98.5t-131.5 -33zM1108 106q52 0 84.5 39t32.5 129q0 88 -32.5 128.5t-84.5 40.5t-84 -40.5
t-32 -128.5q0 -90 32 -129t84 -39zM384 711q-69 0 -128.5 33t-96.5 98.5t-37 162.5t37 162t96.5 97.5t128.5 32.5q70 0 131 -32.5t97.5 -97.5t36.5 -162t-36.5 -162.5t-97.5 -98.5t-131 -33zM384 836q51 0 83.5 40t32.5 129q0 88 -32.5 128.5t-83.5 40.5q-52 0 -84 -40.5
t-32 -128.5q0 -89 32 -129t84 -40z" />
    <glyph glyph-name="ampersand" unicode="&#x26;" horiz-adv-x="1872" 
d="M1485 -26q-84 0 -158 37t-159 114l-646 576q-69 60 -109.5 134.5t-40.5 155.5q0 87 48.5 155.5t140.5 108.5t220 40q122 0 210.5 -40t137 -108t48.5 -152q0 -83 -40 -151.5t-123.5 -125t-214.5 -105.5l-102 97q103 43 161.5 84.5t83.5 86t25 96.5q0 67 -51 111t-135 44
q-99 0 -150 -49.5t-51 -118.5q0 -51 25 -96.5t79 -94.5l636 -566q39 -33 71 -49t78 -16q49 0 86 37t42 120h175q-5 -151 -76.5 -238t-210.5 -87zM691 -26q-108 0 -200.5 29.5t-162.5 81.5t-109 121.5t-39 150.5q0 154 123.5 232t350.5 97l55 -107q-166 -16 -243 -68.5
t-77 -143.5q0 -61 35.5 -111t103.5 -80t165 -30q118 0 217 48t181 132.5t147 197.5t113 243l130 -72q-51 -156 -126.5 -287t-174.5 -228.5t-221 -151.5t-268 -54z" />
    <glyph glyph-name="quotesingle" unicode="'" horiz-adv-x="308" 
d="M58 1354h193l-26 -455h-142z" />
    <glyph glyph-name="parenleft" unicode="(" horiz-adv-x="748" 
d="M551 1477l137 -98q-114 -117 -190.5 -239.5t-115 -251.5t-38.5 -265q0 -202 86 -389.5t258 -363.5l-137 -101q-203 184 -304 402t-101 452q0 237 101 454.5t304 399.5z" />
    <glyph glyph-name="parenright" unicode=")" horiz-adv-x="748" 
d="M198 -231l-139 101q172 176 259 363.5t87 389.5q0 136 -38.5 265t-115.5 251.5t-192 239.5l139 98q202 -182 303.5 -399.5t101.5 -454.5q0 -157 -45 -306.5t-135 -287.5t-225 -260z" />
    <glyph glyph-name="asterisk" unicode="*" horiz-adv-x="822" 
d="M159 871l177 170l-229 79l53 120l206 -103l-21 248h138l-21 -248l206 106l53 -122l-226 -78l177 -172l-102 -88l-154 205l-157 -205z" />
    <glyph glyph-name="plus" unicode="+" horiz-adv-x="1068" 
d="M440 982h189v-409h404v-164h-404v-409h-189v409h-404v164h404v409z" />
    <glyph glyph-name="comma" unicode="," horiz-adv-x="455" 
d="M197 -241l-142 71q61 31 105 69t58 91q-48 7 -82 37t-34 79q0 50 37.5 84.5t95.5 34.5q73 0 116.5 -52t43.5 -124q0 -83 -51.5 -162.5t-146.5 -127.5z" />
    <glyph glyph-name="hyphen" unicode="-" horiz-adv-x="718" 
d="M83 508v166h552v-166h-552z" />
    <glyph glyph-name="period" unicode="." horiz-adv-x="388" 
d="M55 112q0 56 38.5 95t97.5 39t100 -39t41 -95q0 -55 -41 -92.5t-100 -37.5t-97.5 38t-38.5 92z" />
    <glyph glyph-name="slash" unicode="/" horiz-adv-x="897" 
d="M111 -151l507 1625h194l-510 -1625h-191z" />
    <glyph glyph-name="zero" unicode="0" horiz-adv-x="1220" 
d="M611 -26q-153 0 -268.5 73t-179.5 220t-64 370q0 222 64 369t179.5 219t268.5 72q152 0 267 -72t179.5 -219t64.5 -369q0 -223 -64.5 -370t-179.5 -220t-267 -73zM611 149q152 0 233.5 126.5t81.5 361.5q0 234 -81.5 361t-233.5 127t-233.5 -127t-81.5 -361
q0 -235 81.5 -361.5t233.5 -126.5z" />
    <glyph glyph-name="one" unicode="1" horiz-adv-x="683" 
d="M339 1279h148v-1279h-190v1054q-50 -29 -102 -44.5t-104 -17.5v184q65 8 126.5 32.5t121.5 70.5z" />
    <glyph glyph-name="two" unicode="2" horiz-adv-x="1181" 
d="M125 0v201q0 109 34 183.5t99 124.5t158 86l256 100q92 37 137 94t45 141q0 87 -61 144t-173 57q-109 0 -180.5 -49.5t-81.5 -147.5h-211q5 119 66 200t165 122t239 41q126 0 226 -48t158.5 -133t58.5 -196q0 -99 -36 -172.5t-106 -127.5t-170 -94l-260 -103
q-88 -34 -130.5 -79.5t-42.5 -118.5v-50h735v-175h-925z" />
    <glyph glyph-name="three" unicode="3" horiz-adv-x="1208" 
d="M608 -26q-98 0 -189 27.5t-163.5 80t-114.5 131t-42 181.5h198q3 -78 44 -133t110 -83.5t157 -28.5q132 0 205.5 63t73.5 158q0 61 -30.5 107t-95 71.5t-167.5 25.5h-155v150h118q132 0 208 54.5t76 148.5q0 84 -63 141t-183 57q-95 0 -169 -38.5t-98 -137.5h-197
q15 124 78 201t161 112t219 35q131 0 234.5 -44.5t162.5 -123.5t59 -182q0 -99 -55.5 -170.5t-161.5 -109.5q118 -36 192 -114.5t74 -198.5q0 -111 -60 -197t-169 -134.5t-257 -48.5z" />
    <glyph glyph-name="four" unicode="4" horiz-adv-x="1148" 
d="M709 1290h181v-830h221v-162h-221v-298h-188v298h-653v145zM710 1000l-436 -557h436v557z" />
    <glyph glyph-name="five" unicode="5" horiz-adv-x="1144" 
d="M577 -26q-128 0 -230 45.5t-162 133t-62 213.5h192q0 -108 75.5 -162.5t186.5 -54.5q124 0 198 77.5t74 190.5q0 224 -293 224h-362l57 633h731v-174h-578l38 60l-40 -415l-20 19q48 11 111 16t111 5q202 0 321.5 -93.5t119.5 -274.5q0 -125 -57.5 -225.5t-162.5 -159
t-248 -58.5z" />
    <glyph glyph-name="six" unicode="6" horiz-adv-x="1174" 
d="M620 -26q-156 0 -273.5 84t-182.5 228.5t-65 328.5q0 216 66 368.5t187 233t286 80.5q119 0 210 -44.5t145 -124.5t62 -187h-205q-13 85 -63 134.5t-144 49.5q-164 0 -258.5 -143t-94.5 -390q0 -34 1.5 -77t7.5 -80q12 129 65 202.5t131.5 104.5t165.5 31
q117 0 208.5 -51t144 -141.5t52.5 -207.5q0 -119 -56 -209t-157 -140t-233 -50zM620 149q106 0 177 62.5t71 167.5q0 109 -71 170.5t-177 61.5q-70 0 -125.5 -29.5t-88 -82t-32.5 -120.5q0 -105 71 -167.5t175 -62.5z" />
    <glyph glyph-name="seven" unicode="7" horiz-adv-x="963" 
d="M105 0l599 1092h-656v182h880v-179l-568 -1095h-255z" />
    <glyph glyph-name="eight" unicode="8" horiz-adv-x="1256" 
d="M628 -26q-156 0 -273.5 48t-183.5 132t-66 189q0 94 49.5 160.5t135 102.5t193.5 36q35 0 66 -4.5t69 -14.5v-51q-94 0 -165 -29.5t-111 -77.5t-40 -105q0 -67 43 -114.5t117 -72t166 -24.5q159 0 242.5 47t83.5 122q0 60 -42.5 100.5t-118.5 68.5l-356 137
q-64 24 -131 68t-112.5 109.5t-45.5 154.5q0 102 56.5 179t164 119.5t259.5 42.5q136 0 244.5 -46.5t170.5 -127t62 -184.5q0 -76 -40 -141.5t-117 -105.5t-188 -40q-32 0 -59.5 4.5t-63.5 15.5v58q75 0 136.5 24.5t98 69.5t36.5 104q0 58 -35.5 102.5t-98.5 69.5t-146 25
q-80 0 -144 -23.5t-101 -63.5t-37 -89q0 -60 40.5 -96.5t114.5 -64.5l361 -139q140 -54 215 -125.5t75 -196.5q0 -103 -62 -183t-179 -125t-283 -45z" />
    <glyph glyph-name="nine" unicode="9" horiz-adv-x="1186" 
d="M579 -26q-128 0 -229 51.5t-160 142.5t-59 209h198q4 -104 70 -166t174 -62q115 0 185.5 65.5t103.5 185.5t33 281q0 35 -2 66.5t-7 68.5q-16 -109 -66.5 -178.5t-126.5 -103t-169 -33.5q-116 0 -207 51t-143.5 141.5t-52.5 207.5q0 120 56 209t156 138t232 49
q111 0 206.5 -45t166 -129t110 -201t39.5 -262q0 -210 -55.5 -364t-168 -238t-284.5 -84zM566 663q68 0 124.5 30t89.5 81.5t33 117.5q0 108 -72.5 170t-175.5 62q-105 0 -176 -62t-71 -170q0 -107 71 -168t177 -61z" />
    <glyph glyph-name="colon" unicode=":" horiz-adv-x="494" 
d="M108 164q0 56 38.5 95t97.5 39t100 -39t41 -95q0 -55 -41 -92.5t-100 -37.5t-97.5 38t-38.5 92zM108 770q0 56 38.5 95t97.5 39t100 -39t41 -95q0 -55 -41 -92.5t-100 -37.5t-97.5 38t-38.5 92z" />
    <glyph glyph-name="semicolon" unicode=";" horiz-adv-x="562" 
d="M253 -241l-142 71q61 31 105 69t58 91q-48 7 -82 37t-34 79q0 50 37.5 84.5t95.5 34.5q73 0 116.5 -52t43.5 -124q0 -83 -51.5 -162.5t-146.5 -127.5zM167 770q0 56 38.5 95t97.5 39t100 -39t41 -95q0 -55 -41 -92.5t-100 -37.5t-97.5 38t-38.5 92z" />
    <glyph glyph-name="less" unicode="&#x3c;" horiz-adv-x="948" 
d="M731 1181l126 -145l-636 -451v79l636 -447l-126 -147l-646 470v169z" />
    <glyph glyph-name="equal" unicode="=" horiz-adv-x="991" 
d="M158 380h674v-164h-674v164zM158 779h674v-165h-674v165z" />
    <glyph glyph-name="greater" unicode="&#x3e;" horiz-adv-x="948" 
d="M217 70l-125 147l633 447v-79l-633 451l125 145l646 -472v-169z" />
    <glyph glyph-name="question" unicode="?" horiz-adv-x="1013" 
d="M352 349v86q0 87 19.5 142.5t62.5 96t117 78.5q66 35 103.5 64.5t53.5 62.5t16 79q0 72 -58 119.5t-160 47.5q-115 0 -176.5 -48t-74.5 -130h-200q13 158 125 254t320 96q134 0 231 -45.5t149 -123.5t52 -173q0 -103 -52 -174t-166 -130q-66 -35 -104 -65.5t-53.5 -68.5
t-15.5 -98v-70h-189zM451 -26q-60 0 -98 38t-38 92q0 56 37.5 95t97.5 39t100.5 -38.5t40.5 -94.5q0 -54 -40 -92.5t-100 -38.5z" />
    <glyph glyph-name="at" unicode="@" horiz-adv-x="1952" 
d="M1109 -392q-221 0 -400.5 62.5t-308 175t-197.5 265.5t-69 335q0 184 69 339t193 270t292 178.5t365 63.5q184 0 332 -54.5t253 -152t161 -227.5t56 -279q0 -127 -38 -227.5t-103 -172t-146 -109t-167 -37.5q-85 0 -141.5 37t-69.5 101l-8 31q-34 -69 -93.5 -119
t-157.5 -50q-88 0 -163 45t-120.5 126.5t-45.5 191.5q0 98 36.5 184t101 151t147 101.5t174.5 36.5q126 0 199 -75t73 -227v-286q0 -54 18.5 -78.5t55.5 -24.5q53 0 112.5 45.5t101 135t41.5 218.5q0 159 -71.5 282t-205.5 193.5t-323 70.5q-165 0 -300 -54.5t-232.5 -151
t-150 -224.5t-52.5 -276q0 -194 93 -342.5t268 -232.5t421 -84v-155zM961 191q75 0 125 45.5t92 127.5v207q0 74 -26.5 115t-91.5 41q-64 0 -129.5 -40t-109.5 -113t-44 -172q0 -104 52.5 -157.5t131.5 -53.5z" />
    <glyph glyph-name="A" unicode="A" horiz-adv-x="1192" 
d="M49 0l436 1274h235l423 -1274h-200l-99 304h-492l-103 -304h-200zM400 450h397l-198 595z" />
    <glyph glyph-name="B" unicode="B" horiz-adv-x="1266" 
d="M195 0v1274h493q143 0 237.5 -46t141.5 -122t47 -167q0 -109 -60.5 -188t-176.5 -109q76 -13 134 -54.5t91.5 -102.5t33.5 -135q0 -63 -22 -125t-73 -113t-137 -81.5t-215 -30.5h-494zM385 166h300q130 0 188.5 54t58.5 140q0 87 -62 140t-185 53h-300v-387zM385 1110
v-392h296q111 0 174.5 53t63.5 147q0 89 -61.5 140.5t-174.5 51.5h-298z" />
    <glyph glyph-name="C" unicode="C" horiz-adv-x="1243" 
d="M647 -26q-169 0 -291.5 82.5t-189.5 233t-67 353.5q0 214 71 359.5t195.5 220t281.5 74.5q211 0 336 -104.5t166 -271.5l-203 -39q-36 111 -114 177.5t-185 66.5q-94 0 -172 -54t-125 -161.5t-47 -267.5q0 -148 39 -259.5t115 -173.5t190 -62q139 0 219 74.5t80 194.5
h205q0 -140 -62.5 -238.5t-175.5 -151.5t-266 -53z" />
    <glyph glyph-name="D" unicode="D" horiz-adv-x="1343" 
d="M195 1274h390q194 0 337.5 -78.5t223.5 -221.5t80 -337q0 -193 -80 -336t-223.5 -222t-337.5 -79h-390v1274zM385 1103v-935h200q136 0 233.5 61t150.5 167t53 241t-53 240.5t-150.5 165.5t-233.5 60h-200z" />
    <glyph glyph-name="E" unicode="E" horiz-adv-x="1145" 
d="M193 0v1274h800v-164h-610v-388h574v-164h-574v-392h610v-166h-800z" />
    <glyph glyph-name="F" unicode="F" horiz-adv-x="1067" 
d="M195 0v1274h787v-164h-597v-386h552v-163h-552v-561h-190z" />
    <glyph glyph-name="G" unicode="G" horiz-adv-x="1316" 
d="M651 -26q-154 0 -279 80.5t-199 227t-74 344.5q0 161 46.5 286t129 211t191.5 130t233 44q162 0 278 -68t191 -216l-188 -54q-60 83 -132 124.5t-158 41.5q-105 0 -193.5 -60.5t-141.5 -172t-53 -266.5q0 -141 44.5 -248.5t126 -168t192.5 -60.5q88 0 158 40t110.5 118.5
t40.5 194.5h50q0 -161 -38.5 -279.5t-120.5 -183.5t-214 -65zM1004 0l-30 292v216l-306 8v125h490v-641h-154z" />
    <glyph glyph-name="H" unicode="H" horiz-adv-x="1369" 
d="M195 1274h190v-549h598v549h189v-1274h-189v560h-598v-560h-190v1274z" />
    <glyph glyph-name="I" unicode="I" horiz-adv-x="581" 
d="M195 0v1274h190v-1274h-190z" />
    <glyph glyph-name="J" unicode="J" horiz-adv-x="841" 
d="M23 59v193q75 -46 148 -69t140 -23q96 0 138.5 56.5t42.5 164.5v893h190v-893q0 -145 -44.5 -234.5t-125 -131t-187.5 -41.5q-84 0 -159 24t-143 61z" />
    <glyph glyph-name="K" unicode="K" horiz-adv-x="1255" 
d="M929 1274h262l-825 -847v263zM600 741l626 -741h-247l-513 617zM195 1274h192v-1274h-192v1274z" />
    <glyph glyph-name="L" unicode="L" horiz-adv-x="958" 
d="M385 1274v-1108h549v-166h-739v1274h190z" />
    <glyph glyph-name="M" unicode="M" horiz-adv-x="1717" 
d="M195 1274h273l404 -837h-18l404 837h264v-1274h-192v1065h31l-436 -914h-125l-434 909h19v-1060h-190v1274z" />
    <glyph glyph-name="N" unicode="N" horiz-adv-x="1396" 
d="M192 1274h217l617 -988h-15v988h190v-1274h-202l-647 1032h30v-1032h-190v1274z" />
    <glyph glyph-name="O" unicode="O" horiz-adv-x="1323" 
d="M661 -26q-163 0 -290 74t-199.5 221t-72.5 367q0 224 72.5 370.5t199.5 218.5t290 72q164 0 291.5 -73t200 -220.5t72.5 -367.5q0 -222 -72.5 -369.5t-200 -220t-291.5 -72.5zM661 148q170 0 268.5 125t98.5 365q0 234 -98.5 361.5t-268.5 127.5q-167 0 -266 -128
t-99 -363q0 -238 99 -363t266 -125z" />
    <glyph glyph-name="P" unicode="P" horiz-adv-x="1130" 
d="M190 0v1274h427q213 0 328 -106t115 -293q0 -185 -115 -290.5t-328 -105.5h-235v-479h-192zM382 645h235q122 0 185 63t63 167q0 105 -63 170t-185 65h-235v-465z" />
    <glyph glyph-name="Q" unicode="Q" horiz-adv-x="1332" 
d="M661 -26q-163 0 -290 74t-199.5 221t-72.5 367q0 224 72.5 370.5t199.5 218.5t290 72q164 0 291.5 -73t200 -220.5t72.5 -367.5q0 -222 -72.5 -369.5t-200 -220t-291.5 -72.5zM1047 -345q-93 0 -169.5 48.5t-137.5 139.5l-132 193l160 63l116 -172q31 -44 67.5 -62
t72.5 -20q52 0 97.5 13.5t96.5 36.5v-203q-46 -19 -87.5 -28t-83.5 -9zM661 148q170 0 268.5 125t98.5 365q0 234 -98.5 361.5t-268.5 127.5q-167 0 -266 -128t-99 -363q0 -238 99 -363t266 -125z" />
    <glyph glyph-name="R" unicode="R" horiz-adv-x="1251" 
d="M195 0v1274h456q223 0 339.5 -105.5t116.5 -277.5q0 -170 -116.5 -275t-339.5 -105h-266v-511h-190zM898 0l-353 586h205l395 -586h-247zM385 641h249q136 0 207 65.5t71 169.5q0 107 -66.5 170.5t-194.5 63.5h-266v-469z" />
    <glyph glyph-name="S" unicode="S" horiz-adv-x="1237" 
d="M619 -26q-130 0 -239 46.5t-175.5 138.5t-69.5 230h186q0 -83 40.5 -136t107.5 -78.5t148 -25.5q82 0 145 25t97.5 67t34.5 96q0 73 -45 117.5t-137 75.5l-237 88q-153 57 -233 131.5t-80 207.5q0 151 118 245.5t332 94.5q203 0 315.5 -94t128.5 -256h-187
q-14 82 -76.5 130t-180.5 48q-114 0 -178 -49.5t-64 -124.5q0 -62 40.5 -99t126.5 -67l270 -99q139 -49 217 -132t78 -211q0 -108 -56 -191t-164 -130.5t-263 -47.5z" />
    <glyph glyph-name="T" unicode="T" horiz-adv-x="1027" 
d="M12 1110v164h1004v-164h-450l43 44v-1154h-190v1154l42 -44h-449z" />
    <glyph glyph-name="U" unicode="U" horiz-adv-x="1338" 
d="M171 1274h190v-805q0 -170 85.5 -245t222.5 -75t222 75t85 245v805h190v-805q0 -160 -60 -270.5t-171.5 -167.5t-265.5 -57q-153 0 -265 57t-172.5 167.5t-60.5 270.5v805z" />
    <glyph glyph-name="V" unicode="V" horiz-adv-x="1159" 
d="M568 205l355 1069h201l-447 -1274h-199l-442 1274h202l352 -1069h-22z" />
    <glyph glyph-name="W" unicode="W" horiz-adv-x="1833" 
d="M25 1274h213l321 -1106h-52l324 994h129l326 -983h-48l355 1095h214l-445 -1274h-200l-275 816h27l-281 -816h-199z" />
    <glyph glyph-name="X" unicode="X" horiz-adv-x="1319" 
d="M85 0l449 633l-452 641h232l347 -494l312 494h230l-437 -638l465 -636h-236l-354 485l-326 -485h-230z" />
    <glyph glyph-name="Y" unicode="Y" horiz-adv-x="1129" 
d="M16 1274h227l339 -588h-42l347 588h225l-457 -749v-525h-191v525z" />
    <glyph glyph-name="Z" unicode="Z" horiz-adv-x="1215" 
d="M146 0v167l763 999v-70l-763 4v174h948v-167l-730 -957l-10 28l740 -4v-174h-948z" />
    <glyph glyph-name="bracketleft" unicode="[" horiz-adv-x="663" 
d="M195 -236v1747h437v-170h-247v-1407h247v-170h-437z" />
    <glyph glyph-name="backslash" unicode="\" horiz-adv-x="897" 
d="M87 1474l507 -1625h194l-510 1625h-191z" />
    <glyph glyph-name="bracketright" unicode="]" horiz-adv-x="612" 
d="M417 -236v1747h-437v-170h247v-1407h-247v-170h437z" />
    <glyph glyph-name="asciicircum" unicode="^" horiz-adv-x="961" 
d="M41 467l370 720h151l369 -720h-210l-271 570h72l-269 -570h-212z" />
    <glyph glyph-name="underscore" unicode="_" horiz-adv-x="1486" 
d="M110 0v166h1268v-166h-1268z" />
    <glyph glyph-name="grave" unicode="`" horiz-adv-x="678" 
d="M487 1121l-389 331l130 105l352 -360z" />
    <glyph glyph-name="a" unicode="a" horiz-adv-x="1130" 
d="M798 0l-24 221v401q0 118 -49 171.5t-155 53.5q-60 0 -106.5 -17.5t-73 -52.5t-26.5 -88h-210q0 106 52 172t145.5 96.5t218.5 30.5q117 0 206 -38.5t138.5 -120.5t49.5 -212v-617h-166zM476 -26q-121 0 -201 42.5t-119.5 111.5t-39.5 147q0 95 48.5 156.5t134.5 91.5
t198 30q77 0 150 -14t144 -37v-115q-58 21 -128.5 33.5t-131.5 12.5q-91 0 -152 -36t-61 -122q0 -63 48 -108.5t152 -45.5q76 0 134 34.5t90 86.5t32 104h46q0 -100 -40.5 -184.5t-117.5 -136t-186 -51.5z" />
    <glyph glyph-name="b" unicode="b" horiz-adv-x="1203" 
d="M658 -26q-94 0 -170.5 50.5t-122 149.5t-45.5 243h65q0 -84 36.5 -145t93.5 -93.5t119 -32.5q74 0 133.5 41t95 117.5t35.5 180.5q0 103 -35 177.5t-95 115t-136 40.5q-64 0 -120.5 -31t-91.5 -91.5t-35 -147.5h-65q0 141 44 239t122.5 149.5t184.5 51.5
q115 0 210.5 -61.5t153 -174.5t57.5 -267q0 -155 -59 -269.5t-157.5 -178t-217.5 -63.5zM195 0v1367h190v-1136l-61 -231h-129z" />
    <glyph glyph-name="c" unicode="c" horiz-adv-x="1043" 
d="M545 -26q-118 0 -220 63t-164 177t-62 268q0 162 62 274.5t164 172t220 59.5q87 0 155 -27.5t117 -74t79.5 -104.5t42.5 -120l-193 -10q-21 75 -73.5 120.5t-129.5 45.5q-65 0 -122.5 -36.5t-93 -111t-35.5 -188.5q0 -106 33 -181t90 -115t128 -40q102 0 152.5 49.5
t50.5 136.5h193q0 -101 -47 -182t-135.5 -128.5t-211.5 -47.5z" />
    <glyph glyph-name="d" unicode="d" horiz-adv-x="1203" 
d="M544 -26q-118 0 -217 63.5t-157.5 178t-58.5 269.5q0 154 57.5 267t152.5 174.5t211 61.5q106 0 185 -51.5t122.5 -149.5t43.5 -239h-66q0 87 -35 147.5t-91 91.5t-120 31q-75 0 -135.5 -40.5t-96 -115t-35.5 -177.5q0 -104 35.5 -180.5t96 -117.5t134.5 -41
q61 0 117.5 32.5t93 93.5t36.5 145h66q0 -144 -45.5 -243t-122.5 -149.5t-171 -50.5zM850 0l-33 231v1136h191v-1367h-158z" />
    <glyph glyph-name="e" unicode="e" horiz-adv-x="1041" 
d="M540 -26q-124 0 -224 64t-158.5 178t-58.5 264q0 159 58 272.5t158 174.5t225 61q112 0 192 -45.5t129 -122t67.5 -173.5t6.5 -200h-684v110h554l-46 -30q3 54 -5.5 108t-32.5 99.5t-67.5 73t-110.5 27.5q-84 0 -140.5 -42t-85.5 -112.5t-29 -154.5v-77q0 -93 28 -165
t83.5 -113.5t140.5 -41.5q83 0 137.5 39t67.5 117h194q-15 -94 -69 -164t-138.5 -108.5t-191.5 -38.5z" />
    <glyph glyph-name="f" unicode="f" horiz-adv-x="706" 
d="M249 0v1097q0 100 38.5 162.5t102.5 92.5t141 30q44 0 90.5 -6t91.5 -18l-36 -148q-28 10 -56.5 16t-54.5 6q-31 0 -60 -11.5t-47.5 -41.5t-18.5 -85v-1094h-191zM98 833v129h531v-129h-531z" />
    <glyph glyph-name="g" unicode="g" horiz-adv-x="1144" 
d="M549 -496q-156 0 -268.5 43t-173.5 115t-61 157q0 108 79 165.5t201 57.5l123 -58q-104 0 -160.5 -42t-56.5 -114q0 -75 82 -123.5t235 -48.5q111 0 195 32.5t130 85t46 112.5q0 41 -29.5 69.5t-89.5 28.5h-352q-98 0 -172.5 30.5t-116.5 80.5t-42 111q0 60 34 103.5
t90 66t123 22.5l43 -66q-29 0 -58 -12.5t-48 -37.5t-19 -62q0 -43 36.5 -71.5t129.5 -28.5h352q144 0 226 -57t82 -166q0 -99 -68 -189t-193.5 -147t-298.5 -57zM570 289q-112 0 -203.5 43.5t-145.5 122t-54 183.5q0 106 54 184.5t145.5 122t203.5 43.5q109 0 199.5 -43.5
t145 -122t54.5 -184.5q0 -105 -54.5 -183.5t-145 -122t-199.5 -43.5zM570 423q103 0 157.5 61.5t54.5 153.5q0 96 -54.5 155t-157.5 59q-101 0 -157.5 -59t-56.5 -155q0 -92 56.5 -153.5t157.5 -61.5zM897 834l-89 43q0 86 36 150t100 100t147 36l-12 -185q-89 0 -135.5 -35
t-46.5 -109z" />
    <glyph glyph-name="h" unicode="h" horiz-adv-x="1224" 
d="M869 0v564q0 125 -59.5 189.5t-160.5 64.5q-80 0 -139.5 -43.5t-92 -127t-32.5 -203.5h-68q0 177 45.5 298t130.5 183.5t204 62.5q116 0 196.5 -52t122.5 -147.5t42 -224.5v-564h-189zM195 0v1367h190v-1367h-190z" />
    <glyph glyph-name="i" unicode="i" horiz-adv-x="622" 
d="M305 1167q-57 0 -89.5 31.5t-32.5 85.5q0 52 32.5 82.5t89.5 30.5q56 0 88.5 -30.5t32.5 -82.5q0 -54 -32.5 -85.5t-88.5 -31.5zM210 0v965h190v-965h-190z" />
    <glyph glyph-name="j" unicode="j" horiz-adv-x="645" 
d="M327 1167q-56 0 -88.5 31.5t-32.5 85.5q0 52 32.5 82.5t88.5 30.5t89 -30.5t33 -82.5q0 -54 -33 -85.5t-89 -31.5zM110 -496q-73 0 -138.5 17.5t-134.5 51.5l6 164q56 -29 112 -48t114 -19q79 0 122 48.5t43 156.5v1091h189v-1093q0 -198 -85 -283.5t-228 -85.5z" />
    <glyph glyph-name="k" unicode="k" horiz-adv-x="1151" 
d="M195 0v1367h190v-1367h-190zM358 571l457 391h261l-718 -590v199zM867 0l-446 610l186 39l492 -649h-232z" />
    <glyph glyph-name="l" unicode="l" horiz-adv-x="581" 
d="M195 0v1367h190v-1367h-190z" />
    <glyph glyph-name="m" unicode="m" horiz-adv-x="1882" 
d="M1528 0v564q0 125 -59.5 189.5t-159.5 64.5q-120 0 -185.5 -94t-65.5 -270h-83q0 139 27 240t77.5 166t121 96.5t157.5 31.5q116 0 196.5 -52t122.5 -147.5t42 -224.5v-564h-191zM195 0v962h165l21 -181q46 101 126.5 154t189.5 53q116 0 196.5 -52t122.5 -147.5
t42 -224.5v-564h-189v564q0 125 -59.5 189.5t-160.5 64.5q-80 0 -139.5 -43.5t-92 -127t-32.5 -203.5v-444h-190z" />
    <glyph glyph-name="n" unicode="n" horiz-adv-x="1224" 
d="M869 0v564q0 125 -59.5 189.5t-160.5 64.5q-80 0 -139.5 -43.5t-92 -127t-32.5 -203.5h-68q0 177 45.5 298t130.5 183.5t204 62.5q116 0 196.5 -52t122.5 -147.5t42 -224.5v-564h-189zM195 0v962h165l25 -208v-754h-190z" />
    <glyph glyph-name="o" unicode="o" horiz-adv-x="1110" 
d="M557 -26q-131 0 -234.5 57t-163.5 170t-60 279q0 169 60 281.5t163.5 169.5t234.5 57q129 0 232 -57t162.5 -169.5t59.5 -281.5q0 -166 -59.5 -279t-162.5 -170t-232 -57zM551 140q83 0 143.5 40t93 116.5t32.5 183.5q0 164 -66.5 254t-191.5 90q-84 0 -144.5 -40.5
t-93 -117t-32.5 -186.5q0 -161 67 -250.5t192 -89.5z" />
    <glyph glyph-name="p" unicode="p" horiz-adv-x="1191" 
d="M651 -26q-105 0 -182 47.5t-117.5 140t-40.5 229.5h74q0 -79 34 -133.5t89.5 -83t118.5 -28.5q66 0 128.5 37.5t102.5 112.5t40 186q0 106 -35.5 181t-96.5 115t-137 40q-64 0 -120 -30.5t-90 -89t-34 -142.5h-74q0 145 46.5 241t125.5 143.5t175 47.5q113 0 212 -60.5
t160.5 -173.5t61.5 -272t-62 -273t-162.5 -174.5t-216.5 -60.5zM195 -472v1434h157l33 -231v-1203h-190z" />
    <glyph glyph-name="q" unicode="q" horiz-adv-x="1191" 
d="M540 -26q-116 0 -216.5 60.5t-162.5 174.5t-62 273t61 272t160 173.5t211 60.5q97 0 176 -47.5t126 -143.5t47 -241h-76q0 84 -34 142.5t-89 89t-120 30.5q-75 0 -136 -40t-97 -115t-36 -181q0 -111 39.5 -186t102 -112.5t130.5 -37.5q61 0 116 28t89.5 83t34.5 134h46
q0 -124 -33.5 -217.5t-102.5 -146.5t-174 -53zM1075 -496q-148 39 -209.5 121.5t-61.5 231.5v874l63 231h126v-1119q0 -64 12.5 -100.5t43.5 -57.5t85 -39z" />
    <glyph glyph-name="r" unicode="r" horiz-adv-x="749" 
d="M195 0v965h190v-965h-190zM333 430q0 185 38.5 307.5t108 182.5t163.5 60q28 0 52.5 -4t48.5 -11l-7 -189q-27 7 -58.5 12.5t-57.5 5.5q-82 0 -134 -43.5t-77 -125t-25 -195.5h-52z" />
    <glyph glyph-name="s" unicode="s" horiz-adv-x="1053" 
d="M547 -26q-140 0 -236 39.5t-146.5 110t-52.5 165.5h179q4 -83 66.5 -123t169.5 -40q57 0 103.5 18t74 49t27.5 70q0 49 -36 77.5t-116 50.5l-197 67q-118 40 -181 106.5t-63 159.5q0 119 106 191.5t281 72.5q181 0 279.5 -76.5t102.5 -191.5h-183q-7 57 -56.5 87.5
t-142.5 30.5q-87 0 -136.5 -38t-49.5 -86q0 -86 148 -128l207 -73q118 -38 182 -98t64 -152q0 -74 -49 -140t-137.5 -107.5t-207.5 -41.5z" />
    <glyph glyph-name="t" unicode="t" horiz-adv-x="768" 
d="M504 -26q-82 0 -148 31t-104.5 93.5t-38.5 157.5v968h189v-962q0 -136 127 -136q39 0 76 8.5t84 25.5l27 -135q-53 -22 -104.5 -36.5t-107.5 -14.5zM66 833v129h621v-129h-621z" />
    <glyph glyph-name="u" unicode="u" horiz-adv-x="1229" 
d="M843 965h191v-965h-191v965zM171 965h190v-596q0 -109 53.5 -165t150.5 -56q82 0 144.5 43t98 122t35.5 187h61q0 -169 -46 -284t-129 -174.5t-194 -59.5q-106 0 -188.5 39t-129 120.5t-46.5 210.5v613z" />
    <glyph glyph-name="v" unicode="v" horiz-adv-x="1019" 
d="M31 962h218l271 -799h-20l271 799h218l-374 -962h-211z" />
    <glyph glyph-name="w" unicode="w" horiz-adv-x="1477" 
d="M31 962h198l229 -772h-21l221 723h165l220 -725h-20l229 774h190l-316 -962h-186l-218 680h29l-215 -680h-186z" />
    <glyph glyph-name="x" unicode="x" horiz-adv-x="1059" 
d="M43 0l369 480l-369 485h233l259 -341l247 341h232l-369 -485l368 -480h-232l-260 342l-245 -342h-233z" />
    <glyph glyph-name="y" unicode="y" horiz-adv-x="963" 
d="M42 962h213l290 -796h-39l233 796h194l-365 -1147q-50 -156 -128.5 -233.5t-196.5 -77.5q-66 0 -126.5 17t-123.5 50v171q54 -38 104 -55t104 -17t92.5 32.5t65 86t45.5 116.5l29 95z" />
    <glyph glyph-name="z" unicode="z" horiz-adv-x="966" 
d="M109 0v154l539 655h-539v153h751v-153l-527 -655h527v-154h-751z" />
    <glyph glyph-name="braceleft" unicode="{" horiz-adv-x="732" 
d="M720 -291q-166 0 -268 62.5t-148.5 171.5t-46.5 249v182q0 85 -15.5 119t-54.5 34h-40v189h40q39 0 54.5 33.5t15.5 118.5v184q0 141 46.5 249.5t148.5 170.5t268 62v-169q-147 0 -211 -79.5t-64 -235.5v-189q0 -94 -32.5 -151.5t-83.5 -83.5v-8q51 -26 83.5 -83.5
t32.5 -152.5v-188q0 -157 64 -236t211 -79v-170z" />
    <glyph glyph-name="bar" unicode="|" horiz-adv-x="581" 
d="M195 -244v1761h190v-1761h-190z" />
    <glyph glyph-name="braceright" unicode="}" horiz-adv-x="732" 
d="M12 -291q166 0 268 62.5t148.5 171.5t46.5 249v182q0 85 15.5 119t54.5 34h40v189h-40q-39 0 -54.5 33.5t-15.5 118.5v184q0 141 -46.5 249.5t-148.5 170.5t-268 62v-169q147 0 211 -79.5t64 -235.5v-189q0 -94 32.5 -151.5t83.5 -83.5v-8q-51 -26 -83.5 -83.5
t-32.5 -152.5v-188q0 -157 -64 -236t-211 -79v-170z" />
    <glyph glyph-name="asciitilde" unicode="~" horiz-adv-x="1076" 
d="M212 430l-103 55q34 117 91 182t141 65q39 0 85.5 -13.5t121.5 -42.5q79 -31 117.5 -42t66.5 -11q39 0 73 28t59 84l101 -65q-38 -117 -101 -173t-145 -56q-31 0 -78.5 13t-122.5 43q-77 28 -113.5 40t-66.5 12q-36 0 -67.5 -26.5t-58.5 -92.5z" />
    <glyph glyph-name="uni00A0" unicode="&#xa0;" horiz-adv-x="488" 
 />
    <glyph glyph-name="exclamdown" unicode="&#xa1;" horiz-adv-x="568" 
d="M209 875l-22 -896h204l-23 896h-159zM289 1281q-60 0 -98.5 -37.5t-38.5 -93.5t38.5 -94.5t98.5 -38.5q59 0 99.5 38.5t40.5 94.5t-40.5 93.5t-99.5 37.5z" />
    <glyph glyph-name="cent" unicode="&#xa2;" horiz-adv-x="1039" 
d="M462 -212v240h160v-240h-160zM462 941v215h160v-215h-160zM545 -26q-118 0 -220 63t-164 177t-62 268q0 162 62 274.5t164 172t220 59.5q87 0 155 -27.5t117 -74t79.5 -104.5t42.5 -120l-193 -10q-21 75 -73.5 120.5t-129.5 45.5q-65 0 -122.5 -36.5t-93 -111
t-35.5 -188.5q0 -106 33 -181t90 -115t128 -40q102 0 152.5 49.5t50.5 136.5h193q0 -101 -47 -182t-135.5 -128.5t-211.5 -47.5z" />
    <glyph glyph-name="sterling" unicode="&#xa3;" horiz-adv-x="1161" 
d="M101 113v55q76 0 108.5 44t32.5 134v528q0 136 45 230.5t131.5 143.5t208.5 49q151 0 244 -80.5t117 -240.5h-187q-11 75 -59 112t-115 37q-90 0 -142.5 -60.5t-52.5 -190.5v-517q0 -127 -70 -185.5t-261 -58.5zM42 0v168h643q97 0 141.5 40.5t56.5 123.5h205
q-8 -155 -97.5 -243.5t-304.5 -88.5h-644zM67 546v130h719v-130h-719z" />
    <glyph glyph-name="currency" unicode="&#xa4;" 
d="M600 222q-114 0 -208 56t-150 150t-56 208t56 208t150 149.5t208 55.5t207.5 -55.5t149 -149.5t55.5 -208t-55.5 -208t-149 -150t-207.5 -56zM600 395q66 0 120.5 32.5t87.5 87.5t33 121q0 68 -33 122t-87.5 86t-120.5 32t-121 -32t-87.5 -86t-32.5 -122q0 -66 32.5 -121
t87.5 -87.5t121 -32.5zM855 803l-89 89l211 209l88 -87zM336 811l-201 201l86 89l202 -201zM864 461l201 -201l-86 -90l-202 202zM336 461l87 -89l-202 -202l-86 90z" />
    <glyph glyph-name="yen" unicode="&#xa5;" horiz-adv-x="1129" 
d="M464 0v525l-448 749h227l339 -588h-42l347 588h225l-457 -749v-525h-191zM218 188v113h685v-113h-685zM218 393v113h685v-113h-685z" />
    <glyph glyph-name="brokenbar" unicode="&#xa6;" horiz-adv-x="581" 
d="M195 727v790h190v-790h-190zM195 -244v790h190v-790h-190z" />
    <glyph glyph-name="section" unicode="&#xa7;" 
d="M635 447q58 0 104.5 18t74 49.5t27.5 73.5q0 47 -38.5 74.5t-114.5 50.5l-197 67q-117 37 -180 104.5t-63 158.5q0 121 105 193.5t280 72.5q183 0 281 -76.5t102 -191.5h-183q-6 58 -57.5 88.5t-133.5 30.5q-97 0 -145 -38.5t-48 -88.5q0 -81 147 -125l207 -74
q118 -38 182 -97.5t64 -148.5q0 -77 -49 -143.5t-137.5 -107.5t-207.5 -41zM565 757q-87 0 -136.5 -40t-49.5 -91q0 -82 148 -126l207 -73q117 -38 181 -98t64 -149q0 -76 -47 -143t-138 -108t-225 -41q-125 0 -219 39t-146 110t-53 166h179q2 -82 65.5 -122.5t159.5 -40.5
q100 0 158 39.5t58 99.5q0 47 -38 75.5t-114 51.5l-197 66q-119 39 -181.5 106t-62.5 160q0 125 106 196t281 71v-148z" />
    <glyph glyph-name="dieresis" unicode="&#xa8;" horiz-adv-x="793" 
d="M573 1140q-49 0 -84 32.5t-35 81.5q0 48 35 81.5t84 33.5q52 0 87 -33.5t35 -81.5q0 -49 -35 -81.5t-87 -32.5zM218 1140q-52 0 -85.5 32.5t-33.5 79.5q0 50 33.5 82.5t85.5 32.5t86.5 -32.5t34.5 -82.5q0 -47 -34.5 -79.5t-86.5 -32.5z" />
    <glyph glyph-name="copyright" unicode="&#xa9;" horiz-adv-x="1397" 
d="M699 -12q-135 0 -252.5 50.5t-207.5 140t-140.5 207t-50.5 252.5t50.5 252.5t140.5 207t207.5 140.5t252.5 51q134 0 252 -51t207.5 -140.5t140 -207t50.5 -252.5t-50.5 -252.5t-140 -207t-207.5 -140t-252 -50.5zM699 86q115 0 214.5 43t175.5 118.5t119 176t43 214.5
q0 115 -43 214.5t-119 176t-175.5 119.5t-214.5 43q-114 0 -214.5 -43t-176.5 -119.5t-119 -176t-43 -214.5q0 -114 43 -214.5t119 -176t176.5 -118.5t214.5 -43zM696 233q-103 0 -178.5 50.5t-116.5 142.5t-41 216q0 132 44 221t120 135t172 46q130 0 206 -64t102 -167
l-124 -24q-22 69 -69.5 110t-114.5 41q-57 0 -105.5 -33.5t-77 -99.5t-28.5 -165q0 -89 23.5 -158t70.5 -107t117 -38q86 0 135 46t49 119h125q0 -128 -84.5 -199.5t-224.5 -71.5z" />
    <glyph glyph-name="ordfeminine" unicode="&#xaa;" horiz-adv-x="1130" 
d="M798 0l-24 221v401q0 118 -49 171.5t-155 53.5q-60 0 -106.5 -17.5t-73 -52.5t-26.5 -88h-210q0 106 52 172t145.5 96.5t218.5 30.5q117 0 206 -38.5t138.5 -120.5t49.5 -212v-617h-166zM476 -26q-121 0 -201 42.5t-119.5 111.5t-39.5 147q0 95 48.5 156.5t134.5 91.5
t198 30q77 0 150 -14t144 -37v-115q-58 21 -128.5 33.5t-131.5 12.5q-91 0 -152 -36t-61 -122q0 -63 48 -108.5t152 -45.5q76 0 134 34.5t90 86.5t32 104h46q0 -100 -40.5 -184.5t-117.5 -136t-186 -51.5z" />
    <glyph glyph-name="guillemotleft" unicode="&#xab;" horiz-adv-x="1187" 
d="M277 505l368 365l-135 94l-411 -430l411 -430l135 94l-368 365v-58zM720 505l368 365l-135 94l-411 -430l411 -430l135 94l-368 365v-58z" />
    <glyph glyph-name="logicalnot" unicode="&#xac;" 
d="M225 652h695v-357h-132v259l42 -48h-605v146z" />
    <glyph glyph-name="uni00AD" unicode="&#xad;" 
d="M83 508v166h552v-166h-552z" />
    <glyph glyph-name="registered" unicode="&#xae;" horiz-adv-x="1397" 
d="M699 -12q-135 0 -252.5 50.5t-207.5 140t-140.5 207t-50.5 252.5t50.5 252.5t140.5 207t207.5 140.5t252.5 51q134 0 252 -51t207.5 -140.5t140 -207t50.5 -252.5t-50.5 -252.5t-140 -207t-207.5 -140t-252 -50.5zM699 86q115 0 214.5 43t175.5 118.5t119 176t43 214.5
q0 115 -43 214.5t-119 176t-175.5 119.5t-214.5 43q-114 0 -214.5 -43t-176.5 -119.5t-119 -176t-43 -214.5q0 -114 43 -214.5t119 -176t176.5 -118.5t214.5 -43zM863 282l-204 337h118l227 -337h-141zM458 282v733h262q128 0 195 -60.5t67 -159.5q0 -97 -67 -158t-195 -61
h-154v-294h-108zM566 650h144q79 0 119.5 38t40.5 98q0 62 -38 98.5t-112 36.5h-154v-271z" />
    <glyph glyph-name="macron" unicode="&#xaf;" horiz-adv-x="850" 
d="M99 1325h653v-157h-653v157z" />
    <glyph glyph-name="degree" unicode="&#xb0;" horiz-adv-x="722" 
d="M361 961q-77 0 -141 38t-102 102.5t-38 141.5q0 78 38 141.5t102 101t141 37.5t141 -37.5t102 -101t38 -141.5q0 -77 -38 -141.5t-102 -102.5t-141 -38zM361 1091q63 0 107 44.5t44 107.5q0 62 -44 106.5t-107 44.5q-62 0 -107 -44.5t-45 -106.5q0 -63 45 -107.5
t107 -44.5z" />
    <glyph glyph-name="plusminus" unicode="&#xb1;" horiz-adv-x="991" 
d="M419 1070h152v-320h296v-126h-296v-320h-152v320h-296v126h296v320zM148 145h696v-145h-696v145z" />
    <glyph glyph-name="uni00B2" unicode="&#xb2;" horiz-adv-x="809" 
d="M125.302 516v121.086q0 65.6631 20.4824 110.543q20.4824 44.8809 59.6396 75.001q39.1572 30.1211 95.1816 51.8086l154.219 60.2412q55.4219 22.2891 82.5312 56.627q27.1084 34.3379 27.1084 84.9414q0 52.4102 -36.7471 86.748q-36.748 34.3379 -104.219 34.3379
q-65.6631 0 -108.735 -29.8203q-43.0732 -29.8193 -49.0977 -88.8564h-127.109q3.01172 71.6875 39.7588 120.483q36.748 48.7959 99.3994 73.4951t143.978 24.6992q75.9043 0 136.146 -28.916q60.2412 -28.916 95.4824 -80.1221q35.2422 -51.2051 35.2422 -118.073
q0 -59.6396 -21.6875 -103.917t-63.8564 -76.8086q-42.1689 -32.5303 -102.411 -56.627l-156.628 -62.0488q-53.0127 -20.4824 -78.6152 -47.8916q-25.6025 -27.4102 -25.6025 -71.3867v-30.1211h442.776v-105.423h-557.236z" />
    <glyph glyph-name="uni00B3" unicode="&#xb3;" horiz-adv-x="813" 
d="M405.27 500.337q-59.0371 0 -113.856 16.5664q-54.8203 16.5664 -98.4951 48.1934q-43.6758 31.627 -68.9775 78.917q-25.3008 47.29 -25.3008 109.339h119.278q1.80664 -46.9893 26.5059 -80.1221t66.2666 -50.3018q41.5664 -17.1689 94.5791 -17.1689
q79.5195 0 123.797 37.9531q44.2773 37.9521 44.2773 95.1816q0 36.7471 -18.374 64.458q-18.373 27.7119 -57.2295 43.0732q-38.8555 15.3613 -100.904 15.3613h-93.375v90.3633h71.085q79.5195 0 125.303 32.8311q45.7842 32.832 45.7842 89.459
q0 50.6035 -37.9521 84.9404q-37.9521 34.3379 -110.242 34.3379q-57.2295 0 -101.809 -23.1924q-44.5791 -23.1934 -59.0371 -82.833h-118.676q9.03613 74.7002 46.9883 121.086q37.9521 46.3867 96.9893 67.4707q59.0371 21.085 131.929 21.085q78.917 0 141.268 -26.8076
q62.3496 -26.8076 97.8926 -74.3984q35.542 -47.5908 35.542 -109.64q0 -59.6396 -33.4336 -102.713q-33.4346 -43.0723 -97.291 -65.9639q71.0859 -21.6875 115.664 -68.9775q44.5791 -47.2891 44.5791 -119.579q0 -66.8682 -36.1445 -118.677
q-36.1455 -51.8076 -101.809 -81.0244q-65.6631 -29.2178 -154.821 -29.2178z" />
    <glyph glyph-name="acute" unicode="&#xb4;" horiz-adv-x="678" 
d="M192 1121l-93 76l352 360l129 -105z" />
    <glyph glyph-name="uni00B5" unicode="&#xb5;" horiz-adv-x="1229" 
d="M843 965h191v-965h-191v965zM171 965h190v-596q0 -109 53.5 -165t150.5 -56q82 0 144.5 43t98 122t35.5 187h61q0 -169 -46 -284t-129 -174.5t-194 -59.5q-106 0 -188.5 39t-129 120.5t-46.5 210.5v613zM171 -402v1367h190v-1367h-190z" />
    <glyph glyph-name="paragraph" unicode="&#xb6;" 
d="M537 479q-213 0 -327.5 105.5t-114.5 291.5t114.5 292t327.5 106h414v-169h-307v-626h-107zM551 -252v1526h145v-1526h-145zM839 -252v1526h144v-1526h-144z" />
    <glyph glyph-name="periodcentered" unicode="&#xb7;" horiz-adv-x="388" 
d="M55 519q0 56 38.5 95t97.5 39t100 -39t41 -95q0 -55 -41 -92.5t-100 -37.5t-97.5 38t-38.5 92z" />
    <glyph glyph-name="cedilla" unicode="&#xb8;" horiz-adv-x="626" 
d="M99 -361l29 73q71 -36 127.5 -41t90.5 14t37 53q3 32 -23.5 56t-70.5 41.5t-96 29.5l74 201l96 -11l-69 -186l-34 59q93 -18 153.5 -47.5t89 -68t25.5 -84.5q-4 -57 -49 -92t-112 -46.5t-138.5 1t-129.5 48.5z" />
    <glyph glyph-name="uni00B9" unicode="&#xb9;" horiz-adv-x="526" 
d="M240.22 1279.49h89.1572v-770.491h-114.459v634.947q-30.1211 -17.4697 -61.4463 -26.8076q-31.3262 -9.33691 -62.6514 -10.542v110.845q39.1562 4.81934 76.2051 19.5781q37.0488 14.7598 73.1943 42.4707z" />
    <glyph glyph-name="ordmasculine" unicode="&#xba;" horiz-adv-x="1110" 
d="M557 -26q-131 0 -234.5 57t-163.5 170t-60 279q0 169 60 281.5t163.5 169.5t234.5 57q129 0 232 -57t162.5 -169.5t59.5 -281.5q0 -166 -59.5 -279t-162.5 -170t-232 -57zM551 140q83 0 143.5 40t93 116.5t32.5 183.5q0 164 -66.5 254t-191.5 90q-84 0 -144.5 -40.5
t-93 -117t-32.5 -186.5q0 -161 67 -250.5t192 -89.5z" />
    <glyph glyph-name="guillemotright" unicode="&#xbb;" horiz-adv-x="1187" 
d="M910 505l-368 365l135 94l411 -430l-411 -430l-135 94l368 365v-58zM467 505l-368 365l135 94l411 -430l-411 -430l-135 94l368 365v-58z" />
    <glyph glyph-name="onequarter" unicode="&#xbc;" horiz-adv-x="1807" 
d="M241 1371h88v-771h-114v635q-30 -18 -61.5 -27.5t-62.5 -9.5v111q39 4 76.5 19t73.5 43zM249.516 -19.374l963.788 1381.51h148.555l-966.085 -1381.51h-146.258zM1528 777h108v-500h134v-98h-134v-179h-112v179h-394v88zM1528 602l-261 -335h261v335z" />
    <glyph glyph-name="onehalf" unicode="&#xbd;" horiz-adv-x="1890" 
d="M241 1371h88v-771h-114v635q-30 -18 -61.5 -27.5t-62.5 -9.5v111q39 4 76.5 19t73.5 43zM249.516 -19.374l963.788 1381.51h148.555l-966.085 -1381.51h-146.258zM1206 0v121q0 98 46 151.5t130 85.5l153 61q56 22 83 56.5t27 85.5q0 52 -37 86t-104 34q-66 0 -108.5 -30
t-49.5 -88h-127q3 72 40 120.5t99.5 73.5t144.5 25q75 0 135.5 -28.5t95.5 -80t35 -118.5q0 -89 -48 -145.5t-140 -92.5l-156 -62q-54 -20 -79.5 -47.5t-25.5 -71.5v-31h443v-105h-557z" />
    <glyph glyph-name="threequarters" unicode="&#xbe;" horiz-adv-x="2094" 
d="M406 574q-79 0 -149 29t-114 85.5t-44 138.5h119q3 -71 56 -109.5t132 -38.5t123.5 38.5t44.5 94.5t-41.5 90t-134.5 34h-94v90h71q80 0 125.5 33t45.5 89q0 51 -38 85.5t-110 34.5q-57 0 -101.5 -23.5t-59.5 -83.5h-118q13 112 89.5 161.5t185.5 49.5q119 0 197 -59
t78 -153q0 -59 -33.5 -102.5t-97.5 -65.5q71 -22 115.5 -69t44.5 -120q0 -100 -79.5 -164.5t-212.5 -64.5zM535.516 -19.374l963.788 1381.51h148.555l-966.085 -1381.51h-146.258zM1815 777h108v-500h134v-98h-134v-179h-112v179h-394v88zM1815 602l-261 -335h261v335z" />
    <glyph glyph-name="questiondown" unicode="&#xbf;" horiz-adv-x="1013" 
d="M635 906v-86q0 -87 -19.5 -142.5t-62.5 -96t-117 -78.5q-66 -35 -103.5 -64.5t-53.5 -62.5t-16 -79q0 -72 58 -119.5t160 -47.5q115 0 176.5 48t74.5 130h200q-13 -158 -125 -254t-320 -96q-134 0 -231 45.5t-149 123.5t-52 173q0 103 52 174t166 130q66 35 104 65.5
t53.5 68.5t15.5 98v70h189zM536 1281q60 0 98 -38t38 -92q0 -56 -37.5 -95t-97.5 -39t-100.5 38.5t-40.5 94.5q0 54 40 92.5t100 38.5z" />
    <glyph glyph-name="Agrave" unicode="&#xc0;" horiz-adv-x="1192" 
d="M49 0l436 1274h235l423 -1274h-200l-99 304h-492l-103 -304h-200zM400 450h397l-198 595zM754 1432l-389 331l130 105l352 -360z" />
    <glyph glyph-name="Aacute" unicode="&#xc1;" horiz-adv-x="1192" 
d="M49 0l436 1274h235l423 -1274h-200l-99 304h-492l-103 -304h-200zM400 450h397l-198 595zM544 1427l-93 76l352 360l129 -105z" />
    <glyph glyph-name="Acircumflex" unicode="&#xc2;" horiz-adv-x="1192" 
d="M49 0l436 1274h235l423 -1274h-200l-99 304h-492l-103 -304h-200zM400 450h397l-198 595zM384 1401l-113 89l333 309l335 -309l-113 -89l-255 246h66z" />
    <glyph glyph-name="Atilde" unicode="&#xc3;" horiz-adv-x="1192" 
d="M49 0l436 1274h235l423 -1274h-200l-99 304h-492l-103 -304h-200zM400 450h397l-198 595zM354 1427l-77 48q24 109 74.5 168t118.5 59q28 0 57.5 -10t88.5 -41q58 -29 82.5 -39.5t47.5 -10.5q29 0 57 24.5t49 76.5l81 -54q-14 -67 -43 -116.5t-65.5 -77t-73.5 -27.5
q-33 0 -67 13t-96 45q-52 27 -74.5 36t-43.5 9q-31 0 -60 -22t-56 -81z" />
    <glyph glyph-name="Adieresis" unicode="&#xc4;" horiz-adv-x="1192" 
d="M49 0l436 1274h235l423 -1274h-200l-99 304h-492l-103 -304h-200zM400 450h397l-198 595zM782 1451q-49 0 -84 32.5t-35 81.5q0 48 35 81.5t84 33.5q52 0 87 -33.5t35 -81.5q0 -49 -35 -81.5t-87 -32.5zM427 1451q-52 0 -85.5 32.5t-33.5 79.5q0 50 33.5 82.5t85.5 32.5
t86.5 -32.5t34.5 -82.5q0 -47 -34.5 -79.5t-86.5 -32.5z" />
    <glyph glyph-name="Aring" unicode="&#xc5;" horiz-adv-x="1192" 
d="M49 0l436 1274h235l423 -1274h-200l-99 304h-492l-103 -304h-200zM400 450h397l-198 595zM606 1383q-60 0 -109 29t-78 78t-29 109q0 59 29 108t78 79t109 30q59 0 108 -30t78.5 -79t29.5 -108q0 -60 -29.5 -109t-78.5 -78t-108 -29zM606 1514q36 0 60.5 24.5t24.5 60.5
t-24.5 60.5t-60.5 24.5t-60.5 -24.5t-24.5 -60.5t24.5 -60.5t60.5 -24.5z" />
    <glyph glyph-name="AE" unicode="&#xc6;" horiz-adv-x="1717" 
d="M1565 1274v-164h-603l34 31v-495l-34 70h566v-164h-566l34 52v-522l-34 85h603v-167h-759v368l34 -64h-500l92 58l-143 -362h-197l505 1274h968zM840 450l-34 -55l-1 743l35 -28h-161l77 69l-307 -773l-49 44h440z" />
    <glyph glyph-name="Ccedilla" unicode="&#xc7;" horiz-adv-x="1243" 
d="M647 -26q-169 0 -291.5 82.5t-189.5 233t-67 353.5q0 214 71 359.5t195.5 220t281.5 74.5q211 0 336 -104.5t166 -271.5l-203 -39q-36 111 -114 177.5t-185 66.5q-94 0 -172 -54t-125 -161.5t-47 -267.5q0 -148 39 -259.5t115 -173.5t190 -62q139 0 219 74.5t80 194.5
h205q0 -140 -62.5 -238.5t-175.5 -151.5t-266 -53zM459 -361l29 73q71 -36 127.5 -41t90.5 14t37 53q3 32 -23.5 56t-70.5 41.5t-96 29.5l74 201l96 -11l-69 -186l-34 59q93 -18 153.5 -47.5t89 -68t25.5 -84.5q-4 -57 -49 -92t-112 -46.5t-138.5 1t-129.5 48.5z" />
    <glyph glyph-name="Egrave" unicode="&#xc8;" horiz-adv-x="1145" 
d="M193 0v1274h800v-164h-610v-388h574v-164h-574v-392h610v-166h-800zM721 1432l-389 331l130 105l352 -360z" />
    <glyph glyph-name="Eacute" unicode="&#xc9;" horiz-adv-x="1145" 
d="M193 0v1274h800v-164h-610v-388h574v-164h-574v-392h610v-166h-800zM511 1427l-93 76l352 360l129 -105z" />
    <glyph glyph-name="Ecircumflex" unicode="&#xca;" horiz-adv-x="1145" 
d="M193 0v1274h800v-164h-610v-388h574v-164h-574v-392h610v-166h-800zM351 1401l-113 89l333 309l335 -309l-113 -89l-255 246h66z" />
    <glyph glyph-name="Edieresis" unicode="&#xcb;" horiz-adv-x="1145" 
d="M193 0v1274h800v-164h-610v-388h574v-164h-574v-392h610v-166h-800zM749 1451q-49 0 -84 32.5t-35 81.5q0 48 35 81.5t84 33.5q52 0 87 -33.5t35 -81.5q0 -49 -35 -81.5t-87 -32.5zM394 1451q-52 0 -85.5 32.5t-33.5 79.5q0 50 33.5 82.5t85.5 32.5t86.5 -32.5
t34.5 -82.5q0 -47 -34.5 -79.5t-86.5 -32.5z" />
    <glyph glyph-name="Igrave" unicode="&#xcc;" horiz-adv-x="581" 
d="M195 0v1274h190v-1274h-190zM439 1432l-389 331l130 105l352 -360z" />
    <glyph glyph-name="Iacute" unicode="&#xcd;" horiz-adv-x="581" 
d="M195 0v1274h190v-1274h-190zM229 1427l-93 76l352 360l129 -105z" />
    <glyph glyph-name="Icircumflex" unicode="&#xce;" horiz-adv-x="581" 
d="M195 0v1274h190v-1274h-190zM69 1401l-113 89l333 309l335 -309l-113 -89l-255 246h66z" />
    <glyph glyph-name="Idieresis" unicode="&#xcf;" horiz-adv-x="581" 
d="M195 0v1274h190v-1274h-190zM467 1451q-49 0 -84 32.5t-35 81.5q0 48 35 81.5t84 33.5q52 0 87 -33.5t35 -81.5q0 -49 -35 -81.5t-87 -32.5zM112 1451q-52 0 -85.5 32.5t-33.5 79.5q0 50 33.5 82.5t85.5 32.5t86.5 -32.5t34.5 -82.5q0 -47 -34.5 -79.5t-86.5 -32.5z" />
    <glyph glyph-name="Eth" unicode="&#xd0;" horiz-adv-x="1343" 
d="M44 719h629v-164h-629v164zM195 1274h390q194 0 337.5 -78.5t223.5 -221.5t80 -337q0 -193 -80 -336t-223.5 -222t-337.5 -79h-390v1274zM385 1103v-935h200q136 0 233.5 61t150.5 167t53 241t-53 240.5t-150.5 165.5t-233.5 60h-200z" />
    <glyph glyph-name="Ntilde" unicode="&#xd1;" horiz-adv-x="1396" 
d="M192 1274h217l617 -988h-15v988h190v-1274h-202l-647 1032h30v-1032h-190v1274zM447 1427l-77 48q24 109 74.5 168t118.5 59q28 0 57.5 -10t88.5 -41q58 -29 82.5 -39.5t47.5 -10.5q29 0 57 24.5t49 76.5l81 -54q-14 -67 -43 -116.5t-65.5 -77t-73.5 -27.5q-33 0 -67 13
t-96 45q-52 27 -74.5 36t-43.5 9q-31 0 -60 -22t-56 -81z" />
    <glyph glyph-name="Ograve" unicode="&#xd2;" horiz-adv-x="1323" 
d="M661 -26q-163 0 -290 74t-199.5 221t-72.5 367q0 224 72.5 370.5t199.5 218.5t290 72q164 0 291.5 -73t200 -220.5t72.5 -367.5q0 -222 -72.5 -369.5t-200 -220t-291.5 -72.5zM661 148q170 0 268.5 125t98.5 365q0 234 -98.5 361.5t-268.5 127.5q-167 0 -266 -128
t-99 -363q0 -238 99 -363t266 -125zM816 1432l-389 331l130 105l352 -360z" />
    <glyph glyph-name="Oacute" unicode="&#xd3;" horiz-adv-x="1323" 
d="M661 -26q-163 0 -290 74t-199.5 221t-72.5 367q0 224 72.5 370.5t199.5 218.5t290 72q164 0 291.5 -73t200 -220.5t72.5 -367.5q0 -222 -72.5 -369.5t-200 -220t-291.5 -72.5zM661 148q170 0 268.5 125t98.5 365q0 234 -98.5 361.5t-268.5 127.5q-167 0 -266 -128
t-99 -363q0 -238 99 -363t266 -125zM606 1427l-93 76l352 360l129 -105z" />
    <glyph glyph-name="Ocircumflex" unicode="&#xd4;" horiz-adv-x="1323" 
d="M661 -26q-163 0 -290 74t-199.5 221t-72.5 367q0 224 72.5 370.5t199.5 218.5t290 72q164 0 291.5 -73t200 -220.5t72.5 -367.5q0 -222 -72.5 -369.5t-200 -220t-291.5 -72.5zM661 148q170 0 268.5 125t98.5 365q0 234 -98.5 361.5t-268.5 127.5q-167 0 -266 -128
t-99 -363q0 -238 99 -363t266 -125zM446 1401l-113 89l333 309l335 -309l-113 -89l-255 246h66z" />
    <glyph glyph-name="Otilde" unicode="&#xd5;" horiz-adv-x="1323" 
d="M661 -26q-163 0 -290 74t-199.5 221t-72.5 367q0 224 72.5 370.5t199.5 218.5t290 72q164 0 291.5 -73t200 -220.5t72.5 -367.5q0 -222 -72.5 -369.5t-200 -220t-291.5 -72.5zM661 148q170 0 268.5 125t98.5 365q0 234 -98.5 361.5t-268.5 127.5q-167 0 -266 -128
t-99 -363q0 -238 99 -363t266 -125zM416 1427l-77 48q24 109 74.5 168t118.5 59q28 0 57.5 -10t88.5 -41q58 -29 82.5 -39.5t47.5 -10.5q29 0 57 24.5t49 76.5l81 -54q-14 -67 -43 -116.5t-65.5 -77t-73.5 -27.5q-33 0 -67 13t-96 45q-52 27 -74.5 36t-43.5 9q-31 0 -60 -22
t-56 -81z" />
    <glyph glyph-name="Odieresis" unicode="&#xd6;" horiz-adv-x="1323" 
d="M661 -26q-163 0 -290 74t-199.5 221t-72.5 367q0 224 72.5 370.5t199.5 218.5t290 72q164 0 291.5 -73t200 -220.5t72.5 -367.5q0 -222 -72.5 -369.5t-200 -220t-291.5 -72.5zM661 148q170 0 268.5 125t98.5 365q0 234 -98.5 361.5t-268.5 127.5q-167 0 -266 -128
t-99 -363q0 -238 99 -363t266 -125zM844 1451q-49 0 -84 32.5t-35 81.5q0 48 35 81.5t84 33.5q52 0 87 -33.5t35 -81.5q0 -49 -35 -81.5t-87 -32.5zM489 1451q-52 0 -85.5 32.5t-33.5 79.5q0 50 33.5 82.5t85.5 32.5t86.5 -32.5t34.5 -82.5q0 -47 -34.5 -79.5t-86.5 -32.5z
" />
    <glyph glyph-name="multiply" unicode="&#xd7;" horiz-adv-x="1069" 
d="M260 101l-133 135l274 275l-274 272l133 134l275 -273l274 273l134 -134l-275 -272l275 -275l-134 -135l-274 274z" />
    <glyph glyph-name="Oslash" unicode="&#xd8;" horiz-adv-x="1323" 
d="M78 0l983 1275h164l-986 -1275h-161zM661 -26q-164 0 -291 74t-199.5 221t-72.5 367q0 224 72.5 370.5t199.5 218.5t291 72q163 0 290.5 -73t200 -220.5t72.5 -367.5q0 -222 -72.5 -369.5t-200 -220t-290.5 -72.5zM661 148q169 0 267.5 125t98.5 365q0 234 -98.5 361.5
t-267.5 127.5q-167 0 -266.5 -128t-99.5 -363q0 -238 99.5 -363t266.5 -125z" />
    <glyph glyph-name="Ugrave" unicode="&#xd9;" horiz-adv-x="1338" 
d="M171 1274h190v-805q0 -170 85.5 -245t222.5 -75t222 75t85 245v805h190v-805q0 -160 -60 -270.5t-171.5 -167.5t-265.5 -57q-153 0 -265 57t-172.5 167.5t-60.5 270.5v805zM818 1432l-389 331l130 105l352 -360z" />
    <glyph glyph-name="Uacute" unicode="&#xda;" horiz-adv-x="1338" 
d="M171 1274h190v-805q0 -170 85.5 -245t222.5 -75t222 75t85 245v805h190v-805q0 -160 -60 -270.5t-171.5 -167.5t-265.5 -57q-153 0 -265 57t-172.5 167.5t-60.5 270.5v805zM608 1427l-93 76l352 360l129 -105z" />
    <glyph glyph-name="Ucircumflex" unicode="&#xdb;" horiz-adv-x="1338" 
d="M171 1274h190v-805q0 -170 85.5 -245t222.5 -75t222 75t85 245v805h190v-805q0 -160 -60 -270.5t-171.5 -167.5t-265.5 -57q-153 0 -265 57t-172.5 167.5t-60.5 270.5v805zM448 1401l-113 89l333 309l335 -309l-113 -89l-255 246h66z" />
    <glyph glyph-name="Udieresis" unicode="&#xdc;" horiz-adv-x="1338" 
d="M171 1274h190v-805q0 -170 85.5 -245t222.5 -75t222 75t85 245v805h190v-805q0 -160 -60 -270.5t-171.5 -167.5t-265.5 -57q-153 0 -265 57t-172.5 167.5t-60.5 270.5v805zM845 1451q-49 0 -84 32.5t-35 81.5q0 48 35 81.5t84 33.5q52 0 87 -33.5t35 -81.5
q0 -49 -35 -81.5t-87 -32.5zM490 1451q-52 0 -85.5 32.5t-33.5 79.5q0 50 33.5 82.5t85.5 32.5t86.5 -32.5t34.5 -82.5q0 -47 -34.5 -79.5t-86.5 -32.5z" />
    <glyph glyph-name="Yacute" unicode="&#xdd;" horiz-adv-x="1129" 
d="M16 1274h227l339 -588h-42l347 588h225l-457 -749v-525h-191v525zM504 1427l-93 76l352 360l129 -105z" />
    <glyph glyph-name="Thorn" unicode="&#xde;" horiz-adv-x="1130" 
d="M190 0v1274h192v-253l-43 43h278q213 0 328 -106t115 -293q0 -185 -115 -290.5t-328 -105.5h-278l43 42v-311h-192zM382 392l-43 43h278q122 0 185 63t63 167q0 105 -63 170t-185 65h-278l43 44v-552z" />
    <glyph glyph-name="germandbls" unicode="&#xdf;" horiz-adv-x="1257" 
d="M1001 1076q0 -74 -27 -123.5t-62.5 -85t-63 -66t-27.5 -67.5q0 -39 33 -69.5t81 -60.5t96.5 -69t81 -95.5t32.5 -140.5q0 -97 -49 -170t-128.5 -113.5t-173.5 -40.5q-57 0 -127.5 16t-127.5 44l2 157q58 -40 115.5 -59.5t111.5 -19.5q61 0 98.5 23t54.5 60t17 80
q0 67 -31 113t-76 81t-90.5 68t-76 72.5t-30.5 94.5q0 54 29 93t67 74t67 76.5t29 100.5q0 77 -57.5 125t-158.5 48q-117 0 -170.5 -72t-53.5 -234v-916h-191v920q0 146 49.5 247t144.5 153t232 52q122 0 207 -38.5t129 -105.5t44 -152z" />
    <glyph glyph-name="agrave" unicode="&#xe0;" horiz-adv-x="1130" 
d="M798 0l-24 221v401q0 118 -49 171.5t-155 53.5q-60 0 -106.5 -17.5t-73 -52.5t-26.5 -88h-210q0 106 52 172t145.5 96.5t218.5 30.5q117 0 206 -38.5t138.5 -120.5t49.5 -212v-617h-166zM476 -26q-121 0 -201 42.5t-119.5 111.5t-39.5 147q0 95 48.5 156.5t134.5 91.5
t198 30q77 0 150 -14t144 -37v-115q-58 21 -128.5 33.5t-131.5 12.5q-91 0 -152 -36t-61 -122q0 -63 48 -108.5t152 -45.5q76 0 134 34.5t90 86.5t32 104h46q0 -100 -40.5 -184.5t-117.5 -136t-186 -51.5zM714 1121l-389 331l130 105l352 -360z" />
    <glyph glyph-name="aacute" unicode="&#xe1;" horiz-adv-x="1130" 
d="M798 0l-24 221v401q0 118 -49 171.5t-155 53.5q-60 0 -106.5 -17.5t-73 -52.5t-26.5 -88h-210q0 106 52 172t145.5 96.5t218.5 30.5q117 0 206 -38.5t138.5 -120.5t49.5 -212v-617h-166zM476 -26q-121 0 -201 42.5t-119.5 111.5t-39.5 147q0 95 48.5 156.5t134.5 91.5
t198 30q77 0 150 -14t144 -37v-115q-58 21 -128.5 33.5t-131.5 12.5q-91 0 -152 -36t-61 -122q0 -63 48 -108.5t152 -45.5q76 0 134 34.5t90 86.5t32 104h46q0 -100 -40.5 -184.5t-117.5 -136t-186 -51.5zM504 1116l-93 76l352 360l129 -105z" />
    <glyph glyph-name="acircumflex" unicode="&#xe2;" horiz-adv-x="1130" 
d="M798 0l-24 221v401q0 118 -49 171.5t-155 53.5q-60 0 -106.5 -17.5t-73 -52.5t-26.5 -88h-210q0 106 52 172t145.5 96.5t218.5 30.5q117 0 206 -38.5t138.5 -120.5t49.5 -212v-617h-166zM476 -26q-121 0 -201 42.5t-119.5 111.5t-39.5 147q0 95 48.5 156.5t134.5 91.5
t198 30q77 0 150 -14t144 -37v-115q-58 21 -128.5 33.5t-131.5 12.5q-91 0 -152 -36t-61 -122q0 -63 48 -108.5t152 -45.5q76 0 134 34.5t90 86.5t32 104h46q0 -100 -40.5 -184.5t-117.5 -136t-186 -51.5zM344 1090l-113 89l333 309l335 -309l-113 -89l-255 246h66z" />
    <glyph glyph-name="atilde" unicode="&#xe3;" horiz-adv-x="1130" 
d="M798 0l-24 221v401q0 118 -49 171.5t-155 53.5q-60 0 -106.5 -17.5t-73 -52.5t-26.5 -88h-210q0 106 52 172t145.5 96.5t218.5 30.5q117 0 206 -38.5t138.5 -120.5t49.5 -212v-617h-166zM476 -26q-121 0 -201 42.5t-119.5 111.5t-39.5 147q0 95 48.5 156.5t134.5 91.5
t198 30q77 0 150 -14t144 -37v-115q-58 21 -128.5 33.5t-131.5 12.5q-91 0 -152 -36t-61 -122q0 -63 48 -108.5t152 -45.5q76 0 134 34.5t90 86.5t32 104h46q0 -100 -40.5 -184.5t-117.5 -136t-186 -51.5zM313 1116l-77 48q24 109 74.5 168t118.5 59q28 0 57.5 -10t88.5 -41
q58 -29 82.5 -39.5t47.5 -10.5q29 0 57 24.5t49 76.5l81 -54q-14 -67 -43 -116.5t-65.5 -77t-73.5 -27.5q-33 0 -67 13t-96 45q-52 27 -74.5 36t-43.5 9q-31 0 -60 -22t-56 -81z" />
    <glyph glyph-name="adieresis" unicode="&#xe4;" horiz-adv-x="1130" 
d="M798 0l-24 221v401q0 118 -49 171.5t-155 53.5q-60 0 -106.5 -17.5t-73 -52.5t-26.5 -88h-210q0 106 52 172t145.5 96.5t218.5 30.5q117 0 206 -38.5t138.5 -120.5t49.5 -212v-617h-166zM476 -26q-121 0 -201 42.5t-119.5 111.5t-39.5 147q0 95 48.5 156.5t134.5 91.5
t198 30q77 0 150 -14t144 -37v-115q-58 21 -128.5 33.5t-131.5 12.5q-91 0 -152 -36t-61 -122q0 -63 48 -108.5t152 -45.5q76 0 134 34.5t90 86.5t32 104h46q0 -100 -40.5 -184.5t-117.5 -136t-186 -51.5zM741 1140q-49 0 -84 32.5t-35 81.5q0 48 35 81.5t84 33.5
q52 0 87 -33.5t35 -81.5q0 -49 -35 -81.5t-87 -32.5zM386 1140q-52 0 -85.5 32.5t-33.5 79.5q0 50 33.5 82.5t85.5 32.5t86.5 -32.5t34.5 -82.5q0 -47 -34.5 -79.5t-86.5 -32.5z" />
    <glyph glyph-name="aring" unicode="&#xe5;" horiz-adv-x="1130" 
d="M798 0l-24 221v401q0 118 -49 171.5t-155 53.5q-60 0 -106.5 -17.5t-73 -52.5t-26.5 -88h-210q0 106 52 172t145.5 96.5t218.5 30.5q117 0 206 -38.5t138.5 -120.5t49.5 -212v-617h-166zM476 -26q-121 0 -201 42.5t-119.5 111.5t-39.5 147q0 95 48.5 156.5t134.5 91.5
t198 30q77 0 150 -14t144 -37v-115q-58 21 -128.5 33.5t-131.5 12.5q-91 0 -152 -36t-61 -122q0 -63 48 -108.5t152 -45.5q76 0 134 34.5t90 86.5t32 104h46q0 -100 -40.5 -184.5t-117.5 -136t-186 -51.5zM565 1072q-60 0 -109 29t-78 78t-29 109q0 59 29 108t78 79t109 30
q59 0 108 -30t78.5 -79t29.5 -108q0 -60 -29.5 -109t-78.5 -78t-108 -29zM565 1203q36 0 60.5 24.5t24.5 60.5t-24.5 60.5t-60.5 24.5t-60.5 -24.5t-24.5 -60.5t24.5 -60.5t60.5 -24.5z" />
    <glyph glyph-name="ae" unicode="&#xe6;" horiz-adv-x="1707" 
d="M789 302h-25v320q0 116 -50.5 170.5t-151.5 54.5q-57 0 -102 -17.5t-70.5 -52.5t-25.5 -88h-210q0 106 51.5 172t136.5 96.5t185 30.5q126 0 211.5 -45t129.5 -133t44 -217v-178zM469 -26q-112 0 -191 40.5t-120.5 110t-41.5 153.5q0 92 47.5 153t131.5 91.5t190 30.5
q76 0 151.5 -15t145.5 -36v-115q-58 21 -131.5 33.5t-127.5 12.5q-86 0 -145.5 -36.5t-59.5 -117.5q0 -66 46 -112t137 -46q80 0 139 34t91.5 85.5t32.5 105.5h124q0 -91 -50 -176.5t-143 -140.5t-226 -55zM1216 -26q-131 0 -232 66.5t-158 182t-57 262.5t56.5 260.5
t156 178t228.5 64.5q109 0 188.5 -45.5t128.5 -122.5t67.5 -173.5t6.5 -199.5h-684v110h554l-46 -30q3 54 -6 108t-32.5 99.5t-67.5 73t-111 27.5q-83 0 -139.5 -42t-86 -112.5t-29.5 -154.5v-77q0 -93 27.5 -165t84 -113.5t142.5 -41.5q79 0 134.5 38t68.5 118h195
q-14 -93 -69 -163t-138 -109t-182 -39z" />
    <glyph glyph-name="ccedilla" unicode="&#xe7;" horiz-adv-x="1043" 
d="M545 -26q-118 0 -220 63t-164 177t-62 268q0 162 62 274.5t164 172t220 59.5q87 0 155 -27.5t117 -74t79.5 -104.5t42.5 -120l-193 -10q-21 75 -73.5 120.5t-129.5 45.5q-65 0 -122.5 -36.5t-93 -111t-35.5 -188.5q0 -106 33 -181t90 -115t128 -40q102 0 152.5 49.5
t50.5 136.5h193q0 -101 -47 -182t-135.5 -128.5t-211.5 -47.5zM345 -360l29 73q71 -36 127.5 -41t90.5 14t37 53q3 32 -23.5 56t-70.5 41.5t-96 29.5l74 201l96 -11l-69 -186l-34 59q93 -18 153.5 -47.5t89 -68t25.5 -84.5q-4 -57 -49 -92t-112 -46.5t-138.5 1t-129.5 48.5z
" />
    <glyph glyph-name="egrave" unicode="&#xe8;" horiz-adv-x="1041" 
d="M540 -26q-124 0 -224 64t-158.5 178t-58.5 264q0 159 58 272.5t158 174.5t225 61q112 0 192 -45.5t129 -122t67.5 -173.5t6.5 -200h-684v110h554l-46 -30q3 54 -5.5 108t-32.5 99.5t-67.5 73t-110.5 27.5q-84 0 -140.5 -42t-85.5 -112.5t-29 -154.5v-77q0 -93 28 -165
t83.5 -113.5t140.5 -41.5q83 0 137.5 39t67.5 117h194q-15 -94 -69 -164t-138.5 -108.5t-191.5 -38.5zM670 1121l-389 331l130 105l352 -360z" />
    <glyph glyph-name="eacute" unicode="&#xe9;" horiz-adv-x="1041" 
d="M540 -26q-124 0 -224 64t-158.5 178t-58.5 264q0 159 58 272.5t158 174.5t225 61q112 0 192 -45.5t129 -122t67.5 -173.5t6.5 -200h-684v110h554l-46 -30q3 54 -5.5 108t-32.5 99.5t-67.5 73t-110.5 27.5q-84 0 -140.5 -42t-85.5 -112.5t-29 -154.5v-77q0 -93 28 -165
t83.5 -113.5t140.5 -41.5q83 0 137.5 39t67.5 117h194q-15 -94 -69 -164t-138.5 -108.5t-191.5 -38.5zM460 1116l-93 76l352 360l129 -105z" />
    <glyph glyph-name="ecircumflex" unicode="&#xea;" horiz-adv-x="1041" 
d="M540 -26q-124 0 -224 64t-158.5 178t-58.5 264q0 159 58 272.5t158 174.5t225 61q112 0 192 -45.5t129 -122t67.5 -173.5t6.5 -200h-684v110h554l-46 -30q3 54 -5.5 108t-32.5 99.5t-67.5 73t-110.5 27.5q-84 0 -140.5 -42t-85.5 -112.5t-29 -154.5v-77q0 -93 28 -165
t83.5 -113.5t140.5 -41.5q83 0 137.5 39t67.5 117h194q-15 -94 -69 -164t-138.5 -108.5t-191.5 -38.5zM300 1090l-113 89l333 309l335 -309l-113 -89l-255 246h66z" />
    <glyph glyph-name="edieresis" unicode="&#xeb;" horiz-adv-x="1041" 
d="M540 -26q-124 0 -224 64t-158.5 178t-58.5 264q0 159 58 272.5t158 174.5t225 61q112 0 192 -45.5t129 -122t67.5 -173.5t6.5 -200h-684v110h554l-46 -30q3 54 -5.5 108t-32.5 99.5t-67.5 73t-110.5 27.5q-84 0 -140.5 -42t-85.5 -112.5t-29 -154.5v-77q0 -93 28 -165
t83.5 -113.5t140.5 -41.5q83 0 137.5 39t67.5 117h194q-15 -94 -69 -164t-138.5 -108.5t-191.5 -38.5zM697 1140q-49 0 -84 32.5t-35 81.5q0 48 35 81.5t84 33.5q52 0 87 -33.5t35 -81.5q0 -49 -35 -81.5t-87 -32.5zM342 1140q-52 0 -85.5 32.5t-33.5 79.5q0 50 33.5 82.5
t85.5 32.5t86.5 -32.5t34.5 -82.5q0 -47 -34.5 -79.5t-86.5 -32.5z" />
    <glyph glyph-name="igrave" unicode="&#xec;" horiz-adv-x="622" 
d="M210 0v965h190v-965h-190zM453 1121l-389 331l130 105l352 -360z" />
    <glyph glyph-name="iacute" unicode="&#xed;" horiz-adv-x="622" 
d="M210 0v965h190v-965h-190zM243 1116l-93 76l352 360l129 -105z" />
    <glyph glyph-name="icircumflex" unicode="&#xee;" horiz-adv-x="622" 
d="M210 0v965h190v-965h-190zM83 1090l-113 89l333 309l335 -309l-113 -89l-255 246h66z" />
    <glyph glyph-name="idieresis" unicode="&#xef;" horiz-adv-x="622" 
d="M210 0v965h190v-965h-190zM480 1140q-49 0 -84 32.5t-35 81.5q0 48 35 81.5t84 33.5q52 0 87 -33.5t35 -81.5q0 -49 -35 -81.5t-87 -32.5zM125 1140q-52 0 -85.5 32.5t-33.5 79.5q0 50 33.5 82.5t85.5 32.5t86.5 -32.5t34.5 -82.5q0 -47 -34.5 -79.5t-86.5 -32.5z" />
    <glyph glyph-name="eth" unicode="&#xf0;" horiz-adv-x="1127" 
d="M548 -26q-118 0 -217.5 63.5t-159.5 178.5t-60 271q0 152 57.5 264.5t152 174.5t206.5 62t197 -61t133 -166.5t48 -242.5h-65q-2 103 -42.5 169.5t-101.5 98.5t-126 32q-75 0 -135 -40.5t-95.5 -115.5t-35.5 -179q0 -102 35.5 -178t96 -117.5t137.5 -41.5
q83 0 139.5 46.5t88.5 126.5t37 179q6 159 -15.5 303.5t-75 273.5t-141 241.5t-213.5 206.5l153 111q116 -98 205.5 -217t149.5 -251t91.5 -269.5t31.5 -271.5q0 -153 -37.5 -274t-103 -204.5t-151.5 -128t-184 -44.5zM433 1115l-56 119l596 293l56 -119z" />
    <glyph glyph-name="ntilde" unicode="&#xf1;" horiz-adv-x="1224" 
d="M869 0v564q0 125 -59.5 189.5t-160.5 64.5q-80 0 -139.5 -43.5t-92 -127t-32.5 -203.5h-68q0 177 45.5 298t130.5 183.5t204 62.5q116 0 196.5 -52t122.5 -147.5t42 -224.5v-564h-189zM195 0v962h165l25 -208v-754h-190zM382 1127l-77 48q24 109 74.5 168t118.5 59
q28 0 57.5 -10t88.5 -41q58 -29 82.5 -39.5t47.5 -10.5q29 0 57 24.5t49 76.5l81 -54q-14 -67 -43 -116.5t-65.5 -77t-73.5 -27.5q-33 0 -67 13t-96 45q-52 27 -74.5 36t-43.5 9q-31 0 -60 -22t-56 -81z" />
    <glyph glyph-name="ograve" unicode="&#xf2;" horiz-adv-x="1110" 
d="M557 -26q-131 0 -234.5 57t-163.5 170t-60 279q0 169 60 281.5t163.5 169.5t234.5 57q129 0 232 -57t162.5 -169.5t59.5 -281.5q0 -166 -59.5 -279t-162.5 -170t-232 -57zM551 140q83 0 143.5 40t93 116.5t32.5 183.5q0 164 -66.5 254t-191.5 90q-84 0 -144.5 -40.5
t-93 -117t-32.5 -186.5q0 -161 67 -250.5t192 -89.5zM704 1121l-389 331l130 105l352 -360z" />
    <glyph glyph-name="oacute" unicode="&#xf3;" horiz-adv-x="1110" 
d="M557 -26q-131 0 -234.5 57t-163.5 170t-60 279q0 169 60 281.5t163.5 169.5t234.5 57q129 0 232 -57t162.5 -169.5t59.5 -281.5q0 -166 -59.5 -279t-162.5 -170t-232 -57zM551 140q83 0 143.5 40t93 116.5t32.5 183.5q0 164 -66.5 254t-191.5 90q-84 0 -144.5 -40.5
t-93 -117t-32.5 -186.5q0 -161 67 -250.5t192 -89.5zM494 1116l-93 76l352 360l129 -105z" />
    <glyph glyph-name="ocircumflex" unicode="&#xf4;" horiz-adv-x="1110" 
d="M557 -26q-131 0 -234.5 57t-163.5 170t-60 279q0 169 60 281.5t163.5 169.5t234.5 57q129 0 232 -57t162.5 -169.5t59.5 -281.5q0 -166 -59.5 -279t-162.5 -170t-232 -57zM551 140q83 0 143.5 40t93 116.5t32.5 183.5q0 164 -66.5 254t-191.5 90q-84 0 -144.5 -40.5
t-93 -117t-32.5 -186.5q0 -161 67 -250.5t192 -89.5zM334 1090l-113 89l333 309l335 -309l-113 -89l-255 246h66z" />
    <glyph glyph-name="otilde" unicode="&#xf5;" horiz-adv-x="1110" 
d="M557 -26q-131 0 -234.5 57t-163.5 170t-60 279q0 169 60 281.5t163.5 169.5t234.5 57q129 0 232 -57t162.5 -169.5t59.5 -281.5q0 -166 -59.5 -279t-162.5 -170t-232 -57zM551 140q83 0 143.5 40t93 116.5t32.5 183.5q0 164 -66.5 254t-191.5 90q-84 0 -144.5 -40.5
t-93 -117t-32.5 -186.5q0 -161 67 -250.5t192 -89.5zM304 1116l-77 48q24 109 74.5 168t118.5 59q28 0 57.5 -10t88.5 -41q58 -29 82.5 -39.5t47.5 -10.5q29 0 57 24.5t49 76.5l81 -54q-14 -67 -43 -116.5t-65.5 -77t-73.5 -27.5q-33 0 -67 13t-96 45q-52 27 -74.5 36
t-43.5 9q-31 0 -60 -22t-56 -81z" />
    <glyph glyph-name="odieresis" unicode="&#xf6;" horiz-adv-x="1110" 
d="M557 -26q-131 0 -234.5 57t-163.5 170t-60 279q0 169 60 281.5t163.5 169.5t234.5 57q129 0 232 -57t162.5 -169.5t59.5 -281.5q0 -166 -59.5 -279t-162.5 -170t-232 -57zM551 140q83 0 143.5 40t93 116.5t32.5 183.5q0 164 -66.5 254t-191.5 90q-84 0 -144.5 -40.5
t-93 -117t-32.5 -186.5q0 -161 67 -250.5t192 -89.5zM732 1140q-49 0 -84 32.5t-35 81.5q0 48 35 81.5t84 33.5q52 0 87 -33.5t35 -81.5q0 -49 -35 -81.5t-87 -32.5zM377 1140q-52 0 -85.5 32.5t-33.5 79.5q0 50 33.5 82.5t85.5 32.5t86.5 -32.5t34.5 -82.5
q0 -47 -34.5 -79.5t-86.5 -32.5z" />
    <glyph glyph-name="divide" unicode="&#xf7;" horiz-adv-x="1035" 
d="M151 449v166h732v-166h-732zM516 114q-50 0 -83.5 32.5t-33.5 78.5q0 48 33.5 80.5t83.5 32.5q51 0 85 -32.5t34 -80.5q0 -46 -34 -78.5t-85 -32.5zM516 722q-50 0 -83.5 31.5t-33.5 80.5q0 46 33.5 78.5t83.5 32.5q51 0 85 -32.5t34 -78.5q0 -49 -34 -80.5t-85 -31.5z
" />
    <glyph glyph-name="oslash" unicode="&#xf8;" horiz-adv-x="1110" 
d="M557 -26q-131 0 -234.5 57t-163.5 170t-60 279q0 169 60 281.5t163.5 169.5t234.5 57q129 0 232 -57t162.5 -169.5t59.5 -281.5q0 -166 -59.5 -279t-162.5 -170t-232 -57zM551 140q83 0 143.5 40t93 116.5t32.5 183.5q0 164 -66.5 254t-191.5 90q-84 0 -144.5 -40.5
t-93 -117t-32.5 -186.5q0 -161 67 -250.5t192 -89.5zM86.7676 0.0302734l808.717 968.216h176.582l-811.447 -968.216h-173.852z" />
    <glyph glyph-name="ugrave" unicode="&#xf9;" horiz-adv-x="1229" 
d="M843 965h191v-965h-191v965zM171 965h190v-596q0 -109 53.5 -165t150.5 -56q82 0 144.5 43t98 122t35.5 187h61q0 -169 -46 -284t-129 -174.5t-194 -59.5q-106 0 -188.5 39t-129 120.5t-46.5 210.5v613zM781 1121l-389 331l130 105l352 -360z" />
    <glyph glyph-name="uacute" unicode="&#xfa;" horiz-adv-x="1229" 
d="M843 965h191v-965h-191v965zM171 965h190v-596q0 -109 53.5 -165t150.5 -56q82 0 144.5 43t98 122t35.5 187h61q0 -169 -46 -284t-129 -174.5t-194 -59.5q-106 0 -188.5 39t-129 120.5t-46.5 210.5v613zM571 1116l-93 76l352 360l129 -105z" />
    <glyph glyph-name="ucircumflex" unicode="&#xfb;" horiz-adv-x="1229" 
d="M843 965h191v-965h-191v965zM171 965h190v-596q0 -109 53.5 -165t150.5 -56q82 0 144.5 43t98 122t35.5 187h61q0 -169 -46 -284t-129 -174.5t-194 -59.5q-106 0 -188.5 39t-129 120.5t-46.5 210.5v613zM411 1090l-113 89l333 309l335 -309l-113 -89l-255 246h66z" />
    <glyph glyph-name="udieresis" unicode="&#xfc;" horiz-adv-x="1229" 
d="M843 965h191v-965h-191v965zM171 965h190v-596q0 -109 53.5 -165t150.5 -56q82 0 144.5 43t98 122t35.5 187h61q0 -169 -46 -284t-129 -174.5t-194 -59.5q-106 0 -188.5 39t-129 120.5t-46.5 210.5v613zM808 1140q-49 0 -84 32.5t-35 81.5q0 48 35 81.5t84 33.5
q52 0 87 -33.5t35 -81.5q0 -49 -35 -81.5t-87 -32.5zM453 1140q-52 0 -85.5 32.5t-33.5 79.5q0 50 33.5 82.5t85.5 32.5t86.5 -32.5t34.5 -82.5q0 -47 -34.5 -79.5t-86.5 -32.5z" />
    <glyph glyph-name="yacute" unicode="&#xfd;" horiz-adv-x="963" 
d="M42 962h213l290 -796h-39l233 796h194l-365 -1147q-50 -156 -128.5 -233.5t-196.5 -77.5q-66 0 -126.5 17t-123.5 50v171q54 -38 104 -55t104 -17t92.5 32.5t65 86t45.5 116.5l29 95zM421 1116l-93 76l352 360l129 -105z" />
    <glyph glyph-name="thorn" unicode="&#xfe;" 
d="M651 -26q-105 0 -182 47.5t-117.5 140t-40.5 229.5h74q0 -79 34 -133.5t89.5 -83t118.5 -28.5q66 0 128.5 37.5t102.5 112.5t40 186q0 106 -35.5 181t-96.5 115t-137 40q-64 0 -120 -30.5t-90 -89t-34 -142.5h-74q0 145 46.5 241t125.5 143.5t175 47.5q113 0 212 -60.5
t160.5 -173.5t61.5 -272t-62 -273t-162.5 -174.5t-216.5 -60.5zM195 -472v1746h190v-1746h-190z" />
    <glyph glyph-name="ydieresis" unicode="&#xff;" horiz-adv-x="963" 
d="M42 962h213l290 -796h-39l233 796h194l-365 -1147q-50 -156 -128.5 -233.5t-196.5 -77.5q-66 0 -126.5 17t-123.5 50v171q54 -38 104 -55t104 -17t92.5 32.5t65 86t45.5 116.5l29 95zM659 1140q-49 0 -84 32.5t-35 81.5q0 48 35 81.5t84 33.5q52 0 87 -33.5t35 -81.5
q0 -49 -35 -81.5t-87 -32.5zM304 1140q-52 0 -85.5 32.5t-33.5 79.5q0 50 33.5 82.5t85.5 32.5t86.5 -32.5t34.5 -82.5q0 -47 -34.5 -79.5t-86.5 -32.5z" />
    <glyph glyph-name="Amacron" unicode="&#x100;" horiz-adv-x="1192" 
d="M49 0l436 1274h235l423 -1274h-200l-99 304h-492l-103 -304h-200zM400 450h397l-198 595zM279 1636h653v-157h-653v157z" />
    <glyph glyph-name="amacron" unicode="&#x101;" horiz-adv-x="1130" 
d="M798 0l-24 221v401q0 118 -49 171.5t-155 53.5q-60 0 -106.5 -17.5t-73 -52.5t-26.5 -88h-210q0 106 52 172t145.5 96.5t218.5 30.5q117 0 206 -38.5t138.5 -120.5t49.5 -212v-617h-166zM476 -26q-121 0 -201 42.5t-119.5 111.5t-39.5 147q0 95 48.5 156.5t134.5 91.5
t198 30q77 0 150 -14t144 -37v-115q-58 21 -128.5 33.5t-131.5 12.5q-91 0 -152 -36t-61 -122q0 -63 48 -108.5t152 -45.5q76 0 134 34.5t90 86.5t32 104h46q0 -100 -40.5 -184.5t-117.5 -136t-186 -51.5zM238 1325h653v-157h-653v157z" />
    <glyph glyph-name="Abreve" unicode="&#x102;" horiz-adv-x="1192" 
d="M49 0l436 1274h235l423 -1274h-200l-99 304h-492l-103 -304h-200zM400 450h397l-198 595zM605 1467q-136 0 -215 76.5t-79 202.5h153q0 -73 38 -112.5t103 -39.5t102.5 39.5t37.5 112.5h154q0 -126 -79 -202.5t-215 -76.5z" />
    <glyph glyph-name="abreve" unicode="&#x103;" horiz-adv-x="1130" 
d="M798 0l-24 221v401q0 118 -49 171.5t-155 53.5q-60 0 -106.5 -17.5t-73 -52.5t-26.5 -88h-210q0 106 52 172t145.5 96.5t218.5 30.5q117 0 206 -38.5t138.5 -120.5t49.5 -212v-617h-166zM476 -26q-121 0 -201 42.5t-119.5 111.5t-39.5 147q0 95 48.5 156.5t134.5 91.5
t198 30q77 0 150 -14t144 -37v-115q-58 21 -128.5 33.5t-131.5 12.5q-91 0 -152 -36t-61 -122q0 -63 48 -108.5t152 -45.5q76 0 134 34.5t90 86.5t32 104h46q0 -100 -40.5 -184.5t-117.5 -136t-186 -51.5zM565 1156q-136 0 -215 76.5t-79 202.5h153q0 -73 38 -112.5
t103 -39.5t102.5 39.5t37.5 112.5h154q0 -126 -79 -202.5t-215 -76.5z" />
    <glyph glyph-name="Aogonek" unicode="&#x104;" horiz-adv-x="1192" 
d="M49 0l436 1274h235l423 -1274h-200l-99 304h-492l-103 -304h-200zM400 450h397l-198 595zM1258 -329q-63 -34 -131 -53t-132 -19q-102 0 -166 46.5t-64 129.5q0 76 58 147.5t174 116.5l135 -39q-109 -41 -172 -88t-63 -102q0 -43 35 -61.5t81 -18.5q45 0 92 15t108 47z
" />
    <glyph glyph-name="aogonek" unicode="&#x105;" horiz-adv-x="1130" 
d="M798 0l-24 221v401q0 118 -49 171.5t-155 53.5q-60 0 -106.5 -17.5t-73 -52.5t-26.5 -88h-210q0 106 52 172t145.5 96.5t218.5 30.5q117 0 206 -38.5t138.5 -120.5t49.5 -212v-617h-166zM476 -26q-121 0 -201 42.5t-119.5 111.5t-39.5 147q0 95 48.5 156.5t134.5 91.5
t198 30q77 0 150 -14t144 -37v-115q-58 21 -128.5 33.5t-131.5 12.5q-91 0 -152 -36t-61 -122q0 -63 48 -108.5t152 -45.5q76 0 134 34.5t90 86.5t32 104h46q0 -100 -40.5 -184.5t-117.5 -136t-186 -51.5zM1091 -329q-63 -34 -131 -53t-132 -19q-102 0 -166 46.5t-64 129.5
q0 76 58 147.5t174 116.5l135 -39q-109 -41 -172 -88t-63 -102q0 -43 35 -61.5t81 -18.5q45 0 92 15t108 47z" />
    <glyph glyph-name="Cacute" unicode="&#x106;" horiz-adv-x="1243" 
d="M647 -26q-169 0 -291.5 82.5t-189.5 233t-67 353.5q0 214 71 359.5t195.5 220t281.5 74.5q211 0 336 -104.5t166 -271.5l-203 -39q-36 111 -114 177.5t-185 66.5q-94 0 -172 -54t-125 -161.5t-47 -267.5q0 -148 39 -259.5t115 -173.5t190 -62q139 0 219 74.5t80 194.5
h205q0 -140 -62.5 -238.5t-175.5 -151.5t-266 -53zM580 1427l-93 76l352 360l129 -105z" />
    <glyph glyph-name="cacute" unicode="&#x107;" horiz-adv-x="1043" 
d="M545 -26q-118 0 -220 63t-164 177t-62 268q0 162 62 274.5t164 172t220 59.5q87 0 155 -27.5t117 -74t79.5 -104.5t42.5 -120l-193 -10q-21 75 -73.5 120.5t-129.5 45.5q-65 0 -122.5 -36.5t-93 -111t-35.5 -188.5q0 -106 33 -181t90 -115t128 -40q102 0 152.5 49.5
t50.5 136.5h193q0 -101 -47 -182t-135.5 -128.5t-211.5 -47.5zM483 1116l-93 76l352 360l129 -105z" />
    <glyph glyph-name="Cdotaccent" unicode="&#x10a;" horiz-adv-x="1243" 
d="M647 -26q-169 0 -291.5 82.5t-189.5 233t-67 353.5q0 214 71 359.5t195.5 220t281.5 74.5q211 0 336 -104.5t166 -271.5l-203 -39q-36 111 -114 177.5t-185 66.5q-94 0 -172 -54t-125 -161.5t-47 -267.5q0 -148 39 -259.5t115 -173.5t190 -62q139 0 219 74.5t80 194.5
h205q0 -140 -62.5 -238.5t-175.5 -151.5t-266 -53zM517.963 1586.89q0 54.9443 37.7734 93.208q37.7744 38.2646 95.6611 38.2646q57.8877 0 98.1143 -38.2646q40.2266 -38.2637 40.2266 -93.208q0 -53.9629 -40.2266 -90.7559q-40.2266 -36.792 -98.1143 -36.792
q-57.8867 0 -95.6611 37.2832q-37.7734 37.2832 -37.7734 90.2646z" />
    <glyph glyph-name="cdotaccent" unicode="&#x10b;" horiz-adv-x="1043" 
d="M545 -26q-118 0 -220 63t-164 177t-62 268q0 162 62 274.5t164 172t220 59.5q87 0 155 -27.5t117 -74t79.5 -104.5t42.5 -120l-193 -10q-21 75 -73.5 120.5t-129.5 45.5q-65 0 -122.5 -36.5t-93 -111t-35.5 -188.5q0 -106 33 -181t90 -115t128 -40q102 0 152.5 49.5
t50.5 136.5h193q0 -101 -47 -182t-135.5 -128.5t-211.5 -47.5zM421.963 1275.89q0 54.9443 37.7734 93.208q37.7744 38.2646 95.6611 38.2646q57.8877 0 98.1143 -38.2646q40.2266 -38.2637 40.2266 -93.208q0 -53.9629 -40.2266 -90.7559
q-40.2266 -36.792 -98.1143 -36.792q-57.8867 0 -95.6611 37.2832q-37.7734 37.2832 -37.7734 90.2646z" />
    <glyph glyph-name="Ccaron" unicode="&#x10c;" horiz-adv-x="1243" 
d="M647 -26q-169 0 -291.5 82.5t-189.5 233t-67 353.5q0 214 71 359.5t195.5 220t281.5 74.5q211 0 336 -104.5t166 -271.5l-203 -39q-36 111 -114 177.5t-185 66.5q-94 0 -172 -54t-125 -161.5t-47 -267.5q0 -148 39 -259.5t115 -173.5t190 -62q139 0 219 74.5t80 194.5
h205q0 -140 -62.5 -238.5t-175.5 -151.5t-266 -53zM645 1422l-333 308l113 89l253 -264h-66l255 264l113 -89z" />
    <glyph glyph-name="ccaron" unicode="&#x10d;" horiz-adv-x="1043" 
d="M545 -26q-118 0 -220 63t-164 177t-62 268q0 162 62 274.5t164 172t220 59.5q87 0 155 -27.5t117 -74t79.5 -104.5t42.5 -120l-193 -10q-21 75 -73.5 120.5t-129.5 45.5q-65 0 -122.5 -36.5t-93 -111t-35.5 -188.5q0 -106 33 -181t90 -115t128 -40q102 0 152.5 49.5
t50.5 136.5h193q0 -101 -47 -182t-135.5 -128.5t-211.5 -47.5zM549 1111l-333 308l113 89l253 -264h-66l255 264l113 -89z" />
    <glyph glyph-name="Dcaron" unicode="&#x10e;" horiz-adv-x="1343" 
d="M195 1274h390q194 0 337.5 -78.5t223.5 -221.5t80 -337q0 -193 -80 -336t-223.5 -222t-337.5 -79h-390v1274zM385 1103v-935h200q136 0 233.5 61t150.5 167t53 241t-53 240.5t-150.5 165.5t-233.5 60h-200zM676 1422l-333 308l113 89l253 -264h-66l255 264l113 -89z" />
    <glyph glyph-name="dcaron" unicode="&#x10f;" horiz-adv-x="1379" 
d="M1167 1032l-101 50q50 24 84 54.5t45 75.5q-38 3 -64 25.5t-26 59.5q0 36 26.5 62t69.5 26q51 0 84.5 -38.5t33.5 -91.5q0 -63 -38.5 -124t-113.5 -99zM544 -26q-118 0 -217 63.5t-157.5 178t-58.5 269.5q0 154 57.5 267t152.5 174.5t211 61.5q106 0 185 -51.5
t122.5 -149.5t43.5 -239h-66q0 87 -35 147.5t-91 91.5t-120 31q-75 0 -135.5 -40.5t-96 -115t-35.5 -177.5q0 -104 35.5 -180.5t96 -117.5t134.5 -41q61 0 117.5 32.5t93 93.5t36.5 145h66q0 -144 -45.5 -243t-122.5 -149.5t-171 -50.5zM850 0l-33 231v1136h191v-1367h-158z
" />
    <glyph glyph-name="Dcroat" unicode="&#x110;" horiz-adv-x="1343" 
d="M44 719h629v-164h-629v164zM195 1274h390q194 0 337.5 -78.5t223.5 -221.5t80 -337q0 -193 -80 -336t-223.5 -222t-337.5 -79h-390v1274zM385 1103v-935h200q136 0 233.5 61t150.5 167t53 241t-53 240.5t-150.5 165.5t-233.5 60h-200z" />
    <glyph glyph-name="dcroat" unicode="&#x111;" horiz-adv-x="1203" 
d="M544 -26q-118 0 -217 63.5t-157.5 178t-58.5 269.5q0 154 57.5 267t152.5 174.5t211 61.5q106 0 185 -51.5t122.5 -149.5t43.5 -239h-66q0 87 -35 147.5t-91 91.5t-120 31q-75 0 -135.5 -40.5t-96 -115t-35.5 -177.5q0 -104 35.5 -180.5t96 -117.5t134.5 -41
q61 0 117.5 32.5t93 93.5t36.5 145h66q0 -144 -45.5 -243t-122.5 -149.5t-171 -50.5zM850 0l-33 231v1136h191v-1367h-158zM590 1096v137h567v-137h-567z" />
    <glyph glyph-name="Emacron" unicode="&#x112;" horiz-adv-x="1145" 
d="M193 0v1274h800v-164h-610v-388h574v-164h-574v-392h610v-166h-800zM246 1636h653v-157h-653v157z" />
    <glyph glyph-name="emacron" unicode="&#x113;" horiz-adv-x="1041" 
d="M540 -26q-124 0 -224 64t-158.5 178t-58.5 264q0 159 58 272.5t158 174.5t225 61q112 0 192 -45.5t129 -122t67.5 -173.5t6.5 -200h-684v110h554l-46 -30q3 54 -5.5 108t-32.5 99.5t-67.5 73t-110.5 27.5q-84 0 -140.5 -42t-85.5 -112.5t-29 -154.5v-77q0 -93 28 -165
t83.5 -113.5t140.5 -41.5q83 0 137.5 39t67.5 117h194q-15 -94 -69 -164t-138.5 -108.5t-191.5 -38.5zM195 1325h653v-157h-653v157z" />
    <glyph glyph-name="Edotaccent" unicode="&#x116;" horiz-adv-x="1145" 
d="M193 0v1274h800v-164h-610v-388h574v-164h-574v-392h610v-166h-800zM449.963 1586.89q0 54.9443 37.7734 93.208q37.7744 38.2646 95.6611 38.2646q57.8877 0 98.1143 -38.2646q40.2266 -38.2637 40.2266 -93.208q0 -53.9629 -40.2266 -90.7559
q-40.2266 -36.792 -98.1143 -36.792q-57.8867 0 -95.6611 37.2832q-37.7734 37.2832 -37.7734 90.2646z" />
    <glyph glyph-name="edotaccent" unicode="&#x117;" horiz-adv-x="1041" 
d="M540 -26q-124 0 -224 64t-158.5 178t-58.5 264q0 159 58 272.5t158 174.5t225 61q112 0 192 -45.5t129 -122t67.5 -173.5t6.5 -200h-684v110h554l-46 -30q3 54 -5.5 108t-32.5 99.5t-67.5 73t-110.5 27.5q-84 0 -140.5 -42t-85.5 -112.5t-29 -154.5v-77q0 -93 28 -165
t83.5 -113.5t140.5 -41.5q83 0 137.5 39t67.5 117h194q-15 -94 -69 -164t-138.5 -108.5t-191.5 -38.5zM398.963 1275.89q0 54.9443 37.7734 93.208q37.7744 38.2646 95.6611 38.2646q57.8877 0 98.1143 -38.2646q40.2266 -38.2637 40.2266 -93.208
q0 -53.9629 -40.2266 -90.7559q-40.2266 -36.792 -98.1143 -36.792q-57.8867 0 -95.6611 37.2832q-37.7734 37.2832 -37.7734 90.2646z" />
    <glyph glyph-name="Eogonek" unicode="&#x118;" horiz-adv-x="1145" 
d="M193 0v1274h800v-164h-610v-388h574v-164h-574v-392h610v-166h-800zM875 -329q-63 -34 -131 -53t-132 -19q-102 0 -166 46.5t-64 129.5q0 76 58 147.5t174 116.5l135 -39q-109 -41 -172 -88t-63 -102q0 -43 35 -61.5t81 -18.5q45 0 92 15t108 47z" />
    <glyph glyph-name="eogonek" unicode="&#x119;" horiz-adv-x="1041" 
d="M540 -26q-124 0 -224 64t-158.5 178t-58.5 264q0 159 58 272.5t158 174.5t225 61q112 0 192 -45.5t129 -122t67.5 -173.5t6.5 -200h-684v110h554l-46 -30q3 54 -5.5 108t-32.5 99.5t-67.5 73t-110.5 27.5q-84 0 -140.5 -42t-85.5 -112.5t-29 -154.5v-77q0 -93 28 -165
t83.5 -113.5t140.5 -41.5q83 0 137.5 39t67.5 117h194q-15 -94 -69 -164t-138.5 -108.5t-191.5 -38.5zM775 -329q-63 -34 -131 -53t-132 -19q-102 0 -166 46.5t-64 129.5q0 76 58 147.5t174 116.5l135 -39q-109 -41 -172 -88t-63 -102q0 -43 35 -61.5t81 -18.5q45 0 92 15
t108 47z" />
    <glyph glyph-name="Ecaron" unicode="&#x11a;" horiz-adv-x="1145" 
d="M193 0v1274h800v-164h-610v-388h574v-164h-574v-392h610v-166h-800zM577 1422l-333 308l113 89l253 -264h-66l255 264l113 -89z" />
    <glyph glyph-name="ecaron" unicode="&#x11b;" horiz-adv-x="1041" 
d="M540 -26q-124 0 -224 64t-158.5 178t-58.5 264q0 159 58 272.5t158 174.5t225 61q112 0 192 -45.5t129 -122t67.5 -173.5t6.5 -200h-684v110h554l-46 -30q3 54 -5.5 108t-32.5 99.5t-67.5 73t-110.5 27.5q-84 0 -140.5 -42t-85.5 -112.5t-29 -154.5v-77q0 -93 28 -165
t83.5 -113.5t140.5 -41.5q83 0 137.5 39t67.5 117h194q-15 -94 -69 -164t-138.5 -108.5t-191.5 -38.5zM526 1111l-333 308l113 89l253 -264h-66l255 264l113 -89z" />
    <glyph glyph-name="Gbreve" unicode="&#x11e;" horiz-adv-x="1316" 
d="M651 -26q-154 0 -279 80.5t-199 227t-74 344.5q0 161 46.5 286t129 211t191.5 130t233 44q162 0 278 -68t191 -216l-188 -54q-60 83 -132 124.5t-158 41.5q-105 0 -193.5 -60.5t-141.5 -172t-53 -266.5q0 -141 44.5 -248.5t126 -168t192.5 -60.5q88 0 158 40t110.5 118.5
t40.5 194.5h50q0 -161 -38.5 -279.5t-120.5 -183.5t-214 -65zM1004 0l-30 292v216l-306 8v125h490v-641h-154zM658 1467q-136 0 -215 76.5t-79 202.5h153q0 -73 38 -112.5t103 -39.5t102.5 39.5t37.5 112.5h154q0 -126 -79 -202.5t-215 -76.5z" />
    <glyph glyph-name="gbreve" unicode="&#x11f;" horiz-adv-x="1144" 
d="M549 -496q-156 0 -268.5 43t-173.5 115t-61 157q0 108 79 165.5t201 57.5l123 -58q-104 0 -160.5 -42t-56.5 -114q0 -75 82 -123.5t235 -48.5q111 0 195 32.5t130 85t46 112.5q0 41 -29.5 69.5t-89.5 28.5h-352q-98 0 -172.5 30.5t-116.5 80.5t-42 111q0 60 34 103.5
t90 66t123 22.5l43 -66q-29 0 -58 -12.5t-48 -37.5t-19 -62q0 -43 36.5 -71.5t129.5 -28.5h352q144 0 226 -57t82 -166q0 -99 -68 -189t-193.5 -147t-298.5 -57zM570 289q-112 0 -203.5 43.5t-145.5 122t-54 183.5q0 106 54 184.5t145.5 122t203.5 43.5q109 0 199.5 -43.5
t145 -122t54.5 -184.5q0 -105 -54.5 -183.5t-145 -122t-199.5 -43.5zM570 423q103 0 157.5 61.5t54.5 153.5q0 96 -54.5 155t-157.5 59q-101 0 -157.5 -59t-56.5 -155q0 -92 56.5 -153.5t157.5 -61.5zM897 834l-89 43q0 86 36 150t100 100t147 36l-12 -185q-89 0 -135.5 -35
t-46.5 -109zM573 1156q-136 0 -215 76.5t-79 202.5h153q0 -73 38 -112.5t103 -39.5t102.5 39.5t37.5 112.5h154q0 -126 -79 -202.5t-215 -76.5z" />
    <glyph glyph-name="Gdotaccent" unicode="&#x120;" horiz-adv-x="1316" 
d="M651 -26q-154 0 -279 80.5t-199 227t-74 344.5q0 161 46.5 286t129 211t191.5 130t233 44q162 0 278 -68t191 -216l-188 -54q-60 83 -132 124.5t-158 41.5q-105 0 -193.5 -60.5t-141.5 -172t-53 -266.5q0 -141 44.5 -248.5t126 -168t192.5 -60.5q88 0 158 40t110.5 118.5
t40.5 194.5h50q0 -161 -38.5 -279.5t-120.5 -183.5t-214 -65zM1004 0l-30 292v216l-306 8v125h490v-641h-154zM535.963 1586.89q0 54.9443 37.7734 93.208q37.7744 38.2646 95.6611 38.2646q57.8877 0 98.1143 -38.2646q40.2266 -38.2637 40.2266 -93.208
q0 -53.9629 -40.2266 -90.7559q-40.2266 -36.792 -98.1143 -36.792q-57.8867 0 -95.6611 37.2832q-37.7734 37.2832 -37.7734 90.2646z" />
    <glyph glyph-name="gdotaccent" unicode="&#x121;" horiz-adv-x="1144" 
d="M549 -496q-156 0 -268.5 43t-173.5 115t-61 157q0 108 79 165.5t201 57.5l123 -58q-104 0 -160.5 -42t-56.5 -114q0 -75 82 -123.5t235 -48.5q111 0 195 32.5t130 85t46 112.5q0 41 -29.5 69.5t-89.5 28.5h-352q-98 0 -172.5 30.5t-116.5 80.5t-42 111q0 60 34 103.5
t90 66t123 22.5l43 -66q-29 0 -58 -12.5t-48 -37.5t-19 -62q0 -43 36.5 -71.5t129.5 -28.5h352q144 0 226 -57t82 -166q0 -99 -68 -189t-193.5 -147t-298.5 -57zM570 289q-112 0 -203.5 43.5t-145.5 122t-54 183.5q0 106 54 184.5t145.5 122t203.5 43.5q109 0 199.5 -43.5
t145 -122t54.5 -184.5q0 -105 -54.5 -183.5t-145 -122t-199.5 -43.5zM570 423q103 0 157.5 61.5t54.5 153.5q0 96 -54.5 155t-157.5 59q-101 0 -157.5 -59t-56.5 -155q0 -92 56.5 -153.5t157.5 -61.5zM897 834l-89 43q0 86 36 150t100 100t147 36l-12 -185q-89 0 -135.5 -35
t-46.5 -109zM449.963 1275.89q0 54.9443 37.7734 93.208q37.7744 38.2646 95.6611 38.2646q57.8877 0 98.1143 -38.2646q40.2266 -38.2637 40.2266 -93.208q0 -53.9629 -40.2266 -90.7559q-40.2266 -36.792 -98.1143 -36.792q-57.8867 0 -95.6611 37.2832
q-37.7734 37.2832 -37.7734 90.2646z" />
    <glyph glyph-name="uni0122" unicode="&#x122;" horiz-adv-x="1316" 
d="M651 -26q-154 0 -279 80.5t-199 227t-74 344.5q0 161 46.5 286t129 211t191.5 130t233 44q162 0 278 -68t191 -216l-188 -54q-60 83 -132 124.5t-158 41.5q-105 0 -193.5 -60.5t-141.5 -172t-53 -266.5q0 -141 44.5 -248.5t126 -168t192.5 -60.5q88 0 158 40t110.5 118.5
t40.5 194.5h50q0 -161 -38.5 -279.5t-120.5 -183.5t-214 -65zM1004 0l-30 292v216l-306 8v125h490v-641h-154zM611 -443l-97 50q51 25 87.5 55.5t49.5 73.5q-37 4 -61.5 27t-21.5 60q2 37 31 62t71 25q50 0 81 -36.5t27 -94.5q-2 -59 -45 -121.5t-122 -100.5z" />
    <glyph glyph-name="uni0123" unicode="&#x123;" horiz-adv-x="1144" 
d="M549 -496q-156 0 -268.5 43t-173.5 115t-61 157q0 108 79 165.5t201 57.5l123 -58q-104 0 -160.5 -42t-56.5 -114q0 -75 82 -123.5t235 -48.5q111 0 195 32.5t130 85t46 112.5q0 41 -29.5 69.5t-89.5 28.5h-352q-98 0 -172.5 30.5t-116.5 80.5t-42 111q0 60 34 103.5
t90 66t123 22.5l43 -66q-29 0 -58 -12.5t-48 -37.5t-19 -62q0 -43 36.5 -71.5t129.5 -28.5h352q144 0 226 -57t82 -166q0 -99 -68 -189t-193.5 -147t-298.5 -57zM570 289q-112 0 -203.5 43.5t-145.5 122t-54 183.5q0 106 54 184.5t145.5 122t203.5 43.5q109 0 199.5 -43.5
t145 -122t54.5 -184.5q0 -105 -54.5 -183.5t-145 -122t-199.5 -43.5zM570 423q103 0 157.5 61.5t54.5 153.5q0 96 -54.5 155t-157.5 59q-101 0 -157.5 -59t-56.5 -155q0 -92 56.5 -153.5t157.5 -61.5zM897 834l-89 43q0 86 36 150t100 100t147 36l-12 -185q-89 0 -135.5 -35
t-46.5 -109zM615 1389l97 -50q-51 -25 -87.5 -55.5t-49.5 -73.5q37 -4 61.5 -27t21.5 -60q-2 -37 -31 -62t-71 -25q-50 0 -81 36.5t-27 94.5q2 59 45 121.5t122 100.5z" />
    <glyph glyph-name="Hbar" unicode="&#x126;" horiz-adv-x="1369" 
d="M195 1274h190v-602h598v602h189v-1274h-189v506h-598v-506h-190v1274zM297 832v146h791v-146h-791z" />
    <glyph glyph-name="hbar" unicode="&#x127;" horiz-adv-x="1224" 
d="M869 0v564q0 125 -59.5 189.5t-160.5 64.5q-80 0 -139.5 -43.5t-92 -127t-32.5 -203.5h-68q0 177 45.5 298t130.5 183.5t204 62.5q116 0 196.5 -52t122.5 -147.5t42 -224.5v-564h-189zM195 0v1367h190v-1367h-190zM62 1075v131h493v-131h-493z" />
    <glyph glyph-name="Imacron" unicode="&#x12a;" horiz-adv-x="581" 
d="M195 0v1274h190v-1274h-190zM74.1729 1636h430.962v-157h-430.962v157z" />
    <glyph glyph-name="imacron" unicode="&#x12b;" horiz-adv-x="622" 
d="M210 0v965h190v-965h-190zM88.1729 1325h430.962v-157h-430.962v157z" />
    <glyph glyph-name="Iogonek" unicode="&#x12e;" horiz-adv-x="581" 
d="M195 0v1274h190v-1274h-190zM511 -329q-63 -34 -131 -53t-132 -19q-102 0 -166 46.5t-64 129.5q0 76 58 147.5t174 116.5l135 -39q-109 -41 -172 -88t-63 -102q0 -43 35 -61.5t81 -18.5q45 0 92 15t108 47z" />
    <glyph glyph-name="iogonek" unicode="&#x12f;" horiz-adv-x="622" 
d="M210 0v965h190v-965h-190zM180.963 1275.89q0 54.9443 37.7734 93.208q37.7744 38.2646 95.6611 38.2646q57.8877 0 98.1143 -38.2646q40.2266 -38.2637 40.2266 -93.208q0 -53.9629 -40.2266 -90.7559q-40.2266 -36.792 -98.1143 -36.792q-57.8867 0 -95.6611 37.2832
q-37.7734 37.2832 -37.7734 90.2646zM525 -329q-63 -34 -131 -53t-132 -19q-102 0 -166 46.5t-64 129.5q0 76 58 147.5t174 116.5l135 -39q-109 -41 -172 -88t-63 -102q0 -43 35 -61.5t81 -18.5q45 0 92 15t108 47z" />
    <glyph glyph-name="Idotaccent" unicode="&#x130;" horiz-adv-x="581" 
d="M195 0v1274h190v-1274h-190zM167.963 1586.89q0 54.9443 37.7734 93.208q37.7744 38.2646 95.6611 38.2646q57.8877 0 98.1143 -38.2646q40.2266 -38.2637 40.2266 -93.208q0 -53.9629 -40.2266 -90.7559q-40.2266 -36.792 -98.1143 -36.792q-57.8867 0 -95.6611 37.2832
q-37.7734 37.2832 -37.7734 90.2646z" />
    <glyph glyph-name="dotlessi" unicode="&#x131;" horiz-adv-x="622" 
d="M210 0v965h190v-965h-190z" />
    <glyph glyph-name="uni0136" unicode="&#x136;" horiz-adv-x="1255" 
d="M929 1274h262l-825 -847v263zM600 741l626 -741h-247l-513 617zM195 1274h192v-1274h-192v1274zM581 -443l-97 50q51 25 87.5 55.5t49.5 73.5q-37 4 -61.5 27t-21.5 60q2 37 31 62t71 25q50 0 81 -36.5t27 -94.5q-2 -59 -45 -121.5t-122 -100.5z" />
    <glyph glyph-name="uni0137" unicode="&#x137;" horiz-adv-x="1151" 
d="M195 0v1367h190v-1367h-190zM358 571l457 391h261l-718 -590v199zM867 0l-446 610l186 39l492 -649h-232zM529 -443l-97 50q51 25 87.5 55.5t49.5 73.5q-37 4 -61.5 27t-21.5 60q2 37 31 62t71 25q50 0 81 -36.5t27 -94.5q-2 -59 -45 -121.5t-122 -100.5z" />
    <glyph glyph-name="Lacute" unicode="&#x139;" horiz-adv-x="958" 
d="M385 1274v-1108h549v-166h-739v1274h190zM437 1427l-93 76l352 360l129 -105z" />
    <glyph glyph-name="lacute" unicode="&#x13a;" horiz-adv-x="581" 
d="M195 0v1367h190v-1367h-190zM229 1539l-93 76l352 360l129 -105z" />
    <glyph glyph-name="uni013B" unicode="&#x13b;" horiz-adv-x="958" 
d="M385 1274v-1108h549v-166h-739v1274h190zM432 -443l-97 50q51 25 87.5 55.5t49.5 73.5q-37 4 -61.5 27t-21.5 60q2 37 31 62t71 25q50 0 81 -36.5t27 -94.5q-2 -59 -45 -121.5t-122 -100.5z" />
    <glyph glyph-name="uni013C" unicode="&#x13c;" horiz-adv-x="581" 
d="M195 0v1367h190v-1367h-190zM243 -443l-97 50q51 25 87.5 55.5t49.5 73.5q-37 4 -61.5 27t-21.5 60q2 37 31 62t71 25q50 0 81 -36.5t27 -94.5q-2 -59 -45 -121.5t-122 -100.5z" />
    <glyph glyph-name="Lcaron" unicode="&#x13d;" horiz-adv-x="958" 
d="M385 1274v-1108h549v-166h-739v1274h190zM502 1422l-333 308l113 89l253 -264h-66l255 264l113 -89z" />
    <glyph glyph-name="lcaron" unicode="&#x13e;" horiz-adv-x="581" 
d="M195 0v1367h190v-1367h-190zM295 1533l-333 308l113 89l253 -264h-66l255 264l113 -89z" />
    <glyph glyph-name="Lslash" unicode="&#x141;" horiz-adv-x="958" 
d="M72 630l-29 162l512 87l30 -162zM385 1274v-1108h549v-166h-739v1274h190z" />
    <glyph glyph-name="lslash" unicode="&#x142;" horiz-adv-x="581" 
d="M63 725l-25 125l513 86l24 -124zM195 0v1367h190v-1367h-190z" />
    <glyph glyph-name="Nacute" unicode="&#x143;" horiz-adv-x="1396" 
d="M192 1274h217l617 -988h-15v988h190v-1274h-202l-647 1032h30v-1032h-190v1274zM637 1427l-93 76l352 360l129 -105z" />
    <glyph glyph-name="nacute" unicode="&#x144;" horiz-adv-x="1224" 
d="M869 0v564q0 125 -59.5 189.5t-160.5 64.5q-80 0 -139.5 -43.5t-92 -127t-32.5 -203.5h-68q0 177 45.5 298t130.5 183.5t204 62.5q116 0 196.5 -52t122.5 -147.5t42 -224.5v-564h-189zM195 0v962h165l25 -208v-754h-190zM573 1127l-93 76l352 360l129 -105z" />
    <glyph glyph-name="uni0145" unicode="&#x145;" horiz-adv-x="1396" 
d="M192 1274h217l617 -988h-15v988h190v-1274h-202l-647 1032h30v-1032h-190v1274zM651 -443l-97 50q51 25 87.5 55.5t49.5 73.5q-37 4 -61.5 27t-21.5 60q2 37 31 62t71 25q50 0 81 -36.5t27 -94.5q-2 -59 -45 -121.5t-122 -100.5z" />
    <glyph glyph-name="uni0146" unicode="&#x146;" horiz-adv-x="1224" 
d="M869 0v564q0 125 -59.5 189.5t-160.5 64.5q-80 0 -139.5 -43.5t-92 -127t-32.5 -203.5h-68q0 177 45.5 298t130.5 183.5t204 62.5q116 0 196.5 -52t122.5 -147.5t42 -224.5v-564h-189zM195 0v962h165l25 -208v-754h-190zM565 -443l-97 50q51 25 87.5 55.5t49.5 73.5
q-37 4 -61.5 27t-21.5 60q2 37 31 62t71 25q50 0 81 -36.5t27 -94.5q-2 -59 -45 -121.5t-122 -100.5z" />
    <glyph glyph-name="Ncaron" unicode="&#x147;" horiz-adv-x="1396" 
d="M192 1274h217l617 -988h-15v988h190v-1274h-202l-647 1032h30v-1032h-190v1274zM703 1422l-333 308l113 89l253 -264h-66l255 264l113 -89z" />
    <glyph glyph-name="ncaron" unicode="&#x148;" horiz-adv-x="1224" 
d="M869 0v564q0 125 -59.5 189.5t-160.5 64.5q-80 0 -139.5 -43.5t-92 -127t-32.5 -203.5h-68q0 177 45.5 298t130.5 183.5t204 62.5q116 0 196.5 -52t122.5 -147.5t42 -224.5v-564h-189zM195 0v962h165l25 -208v-754h-190zM638 1122l-333 308l113 89l253 -264h-66l255 264
l113 -89z" />
    <glyph glyph-name="Eng" unicode="&#x14a;" horiz-adv-x="1396" 
d="M888 -496q-74 0 -139.5 17.5t-134.5 51.5l7 164q56 -29 112 -48t114 -19q79 0 125.5 48.5t46.5 156.5l-6 615h188v-617q0 -198 -85 -283.5t-228 -85.5zM192 1274h217l617 -988h-15v988h190v-1274l-61 -218l-788 1250h30v-1032h-190v1274z" />
    <glyph glyph-name="eng" unicode="&#x14b;" horiz-adv-x="1256" 
d="M745 -496q-73 0 -138.5 17.5t-134.5 51.5l7 164q55 -29 111.5 -48t114.5 -19q79 0 122 48.5t43 156.5v644h189v-646q0 -198 -85 -283.5t-229 -85.5zM869 0v564q0 125 -59.5 189.5t-160.5 64.5q-80 0 -139.5 -43.5t-92 -127t-32.5 -203.5h-68q0 177 45.5 298t130.5 183.5
t204 62.5q116 0 196.5 -52t122.5 -147.5t42 -224.5v-564h-189zM195 0v962h165l25 -208v-754h-190z" />
    <glyph glyph-name="Omacron" unicode="&#x14c;" horiz-adv-x="1323" 
d="M661 -26q-163 0 -290 74t-199.5 221t-72.5 367q0 224 72.5 370.5t199.5 218.5t290 72q164 0 291.5 -73t200 -220.5t72.5 -367.5q0 -222 -72.5 -369.5t-200 -220t-291.5 -72.5zM661 148q170 0 268.5 125t98.5 365q0 234 -98.5 361.5t-268.5 127.5q-167 0 -266 -128
t-99 -363q0 -238 99 -363t266 -125zM341 1636h653v-157h-653v157z" />
    <glyph glyph-name="omacron" unicode="&#x14d;" horiz-adv-x="1110" 
d="M557 -26q-131 0 -234.5 57t-163.5 170t-60 279q0 169 60 281.5t163.5 169.5t234.5 57q129 0 232 -57t162.5 -169.5t59.5 -281.5q0 -166 -59.5 -279t-162.5 -170t-232 -57zM551 140q83 0 143.5 40t93 116.5t32.5 183.5q0 164 -66.5 254t-191.5 90q-84 0 -144.5 -40.5
t-93 -117t-32.5 -186.5q0 -161 67 -250.5t192 -89.5zM229 1325h653v-157h-653v157z" />
    <glyph glyph-name="Ohungarumlaut" unicode="&#x150;" horiz-adv-x="1323" 
d="M661 -26q-163 0 -290 74t-199.5 221t-72.5 367q0 224 72.5 370.5t199.5 218.5t290 72q164 0 291.5 -73t200 -220.5t72.5 -367.5q0 -222 -72.5 -369.5t-200 -220t-291.5 -72.5zM661 148q170 0 268.5 125t98.5 365q0 234 -98.5 361.5t-268.5 127.5q-167 0 -266 -128
t-99 -363q0 -238 99 -363t266 -125zM826 1410l-99 17l31 331l139 -29zM576 1422l-101 12l14 334l142 -21z" />
    <glyph glyph-name="ohungarumlaut" unicode="&#x151;" horiz-adv-x="1110" 
d="M557 -26q-131 0 -234.5 57t-163.5 170t-60 279q0 169 60 281.5t163.5 169.5t234.5 57q129 0 232 -57t162.5 -169.5t59.5 -281.5q0 -166 -59.5 -279t-162.5 -170t-232 -57zM551 140q83 0 143.5 40t93 116.5t32.5 183.5q0 164 -66.5 254t-191.5 90q-84 0 -144.5 -40.5
t-93 -117t-32.5 -186.5q0 -161 67 -250.5t192 -89.5zM714 1099l-99 17l31 331l139 -29zM464 1111l-101 12l14 334l142 -21z" />
    <glyph glyph-name="OE" unicode="&#x152;" horiz-adv-x="1770" 
d="M639 -26q-157 0 -279 74.5t-191.5 222t-69.5 368.5t69.5 367.5t192 218.5t281.5 72q122 0 217 -38.5t153 -117.5l-114 -88q-51 35 -114.5 54.5t-133.5 19.5q-171 0 -262.5 -128.5t-91.5 -364.5q0 -234 91.5 -360t264.5 -126q75 0 134.5 21t117.5 56l108 -121
q-58 -54 -152.5 -92t-220.5 -38zM891 0v1274h727v-164h-579l38 44v-474l-38 42h543v-164h-543l38 43v-478l-38 43h579v-166h-727z" />
    <glyph glyph-name="oe" unicode="&#x153;" horiz-adv-x="1689" 
d="M535.482 -26q-124.764 0 -223.336 57t-155.716 170t-57.1436 279q0 169 57.1436 281.5t155.716 169.5t223.336 57q122.859 0 220.955 -57q98.0967 -57 154.764 -169.5q56.668 -112.5 56.668 -281.5q0 -166 -56.668 -279q-56.667 -113 -154.764 -170
q-98.0957 -57 -220.955 -57zM529.769 140q79.0479 0 136.668 40t88.5723 116.5q30.9531 76.5 30.9531 183.5q0 164 -63.334 254t-182.384 90q-80 0 -137.62 -40.5t-88.5723 -117q-30.9531 -76.5 -30.9531 -186.5q0 -161 63.8105 -250.5q63.8096 -89.5 182.859 -89.5z
M1207.29 -26q-118.097 0 -213.336 64t-150.954 178t-55.7148 264q0 159 55.2383 272.5q55.2393 113.5 150.479 174.5t214.288 61q106.668 0 182.859 -45.5t122.858 -122q46.668 -76.5 64.2871 -173.5t6.19043 -200h-651.437v110h527.625l-43.8096 -30
q2.85645 54 -5.23828 108q-8.0957 54 -30.9531 99.5t-64.2861 73q-41.4297 27.5 -105.239 27.5q-80.001 0 -133.812 -42t-81.4297 -112.5t-27.6191 -154.5v-77q0 -93 26.667 -165t79.5244 -113.5q52.8584 -41.5 133.812 -41.5q79.0488 0 130.954 39t64.2861 117h184.765
q-14.2861 -94 -65.7148 -164q-51.4297 -70 -131.907 -108.5q-80.4766 -38.5 -182.383 -38.5z" />
    <glyph glyph-name="Racute" unicode="&#x154;" horiz-adv-x="1251" 
d="M195 0v1274h456q223 0 339.5 -105.5t116.5 -277.5q0 -170 -116.5 -275t-339.5 -105h-266v-511h-190zM898 0l-353 586h205l395 -586h-247zM385 641h249q136 0 207 65.5t71 169.5q0 107 -66.5 170.5t-194.5 63.5h-266v-469zM565 1427l-93 76l352 360l129 -105z" />
    <glyph glyph-name="racute" unicode="&#x155;" horiz-adv-x="749" 
d="M195 0v965h190v-965h-190zM333 430q0 185 38.5 307.5t108 182.5t163.5 60q28 0 52.5 -4t48.5 -11l-7 -189q-27 7 -58.5 12.5t-57.5 5.5q-82 0 -134 -43.5t-77 -125t-25 -195.5h-52zM410 1116l-93 76l352 360l129 -105z" />
    <glyph glyph-name="uni0156" unicode="&#x156;" horiz-adv-x="1251" 
d="M195 0v1274h456q223 0 339.5 -105.5t116.5 -277.5q0 -170 -116.5 -275t-339.5 -105h-266v-511h-190zM898 0l-353 586h205l395 -586h-247zM385 641h249q136 0 207 65.5t71 169.5q0 107 -66.5 170.5t-194.5 63.5h-266v-469zM579 -443l-97 50q51 25 87.5 55.5t49.5 73.5
q-37 4 -61.5 27t-21.5 60q2 37 31 62t71 25q50 0 81 -36.5t27 -94.5q-2 -59 -45 -121.5t-122 -100.5z" />
    <glyph glyph-name="uni0157" unicode="&#x157;" horiz-adv-x="749" 
d="M195 0v965h190v-965h-190zM333 430q0 185 38.5 307.5t108 182.5t163.5 60q28 0 52.5 -4t48.5 -11l-7 -189q-27 7 -58.5 12.5t-57.5 5.5q-82 0 -134 -43.5t-77 -125t-25 -195.5h-52zM442 -437l-97 50q51 25 87.5 55.5t49.5 73.5q-37 4 -61.5 27t-21.5 60q2 37 31 62t71 25
q50 0 81 -36.5t27 -94.5q-2 -59 -45 -121.5t-122 -100.5z" />
    <glyph glyph-name="Rcaron" unicode="&#x158;" horiz-adv-x="1251" 
d="M195 0v1274h456q223 0 339.5 -105.5t116.5 -277.5q0 -170 -116.5 -275t-339.5 -105h-266v-511h-190zM898 0l-353 586h205l395 -586h-247zM385 641h249q136 0 207 65.5t71 169.5q0 107 -66.5 170.5t-194.5 63.5h-266v-469zM631 1422l-333 308l113 89l253 -264h-66l255 264
l113 -89z" />
    <glyph glyph-name="rcaron" unicode="&#x159;" horiz-adv-x="749" 
d="M195 0v965h190v-965h-190zM333 430q0 185 38.5 307.5t108 182.5t163.5 60q28 0 52.5 -4t48.5 -11l-7 -189q-27 7 -58.5 12.5t-57.5 5.5q-82 0 -134 -43.5t-77 -125t-25 -195.5h-52zM476 1111l-333 308l113 89l253 -264h-66l255 264l113 -89z" />
    <glyph glyph-name="Sacute" unicode="&#x15a;" horiz-adv-x="1237" 
d="M619 -26q-130 0 -239 46.5t-175.5 138.5t-69.5 230h186q0 -83 40.5 -136t107.5 -78.5t148 -25.5q82 0 145 25t97.5 67t34.5 96q0 73 -45 117.5t-137 75.5l-237 88q-153 57 -233 131.5t-80 207.5q0 151 118 245.5t332 94.5q203 0 315.5 -94t128.5 -256h-187
q-14 82 -76.5 130t-180.5 48q-114 0 -178 -49.5t-64 -124.5q0 -62 40.5 -99t126.5 -67l270 -99q139 -49 217 -132t78 -211q0 -108 -56 -191t-164 -130.5t-263 -47.5zM558 1427l-93 76l352 360l129 -105z" />
    <glyph glyph-name="sacute" unicode="&#x15b;" horiz-adv-x="1053" 
d="M547 -26q-140 0 -236 39.5t-146.5 110t-52.5 165.5h179q4 -83 66.5 -123t169.5 -40q57 0 103.5 18t74 49t27.5 70q0 49 -36 77.5t-116 50.5l-197 67q-118 40 -181 106.5t-63 159.5q0 119 106 191.5t281 72.5q181 0 279.5 -76.5t102.5 -191.5h-183q-7 57 -56.5 87.5
t-142.5 30.5q-87 0 -136.5 -38t-49.5 -86q0 -86 148 -128l207 -73q118 -38 182 -98t64 -152q0 -74 -49 -140t-137.5 -107.5t-207.5 -41.5zM466 1116l-93 76l352 360l129 -105z" />
    <glyph glyph-name="Scedilla" unicode="&#x15e;" horiz-adv-x="1237" 
d="M619 -26q-130 0 -239 46.5t-175.5 138.5t-69.5 230h186q0 -83 40.5 -136t107.5 -78.5t148 -25.5q82 0 145 25t97.5 67t34.5 96q0 73 -45 117.5t-137 75.5l-237 88q-153 57 -233 131.5t-80 207.5q0 151 118 245.5t332 94.5q203 0 315.5 -94t128.5 -256h-187
q-14 82 -76.5 130t-180.5 48q-114 0 -178 -49.5t-64 -124.5q0 -62 40.5 -99t126.5 -67l270 -99q139 -49 217 -132t78 -211q0 -108 -56 -191t-164 -130.5t-263 -47.5zM426 -361l29 73q71 -36 127.5 -41t90.5 14t37 53q3 32 -23.5 56t-70.5 41.5t-96 29.5l74 201l96 -11
l-69 -186l-34 59q93 -18 153.5 -47.5t89 -68t25.5 -84.5q-4 -57 -49 -92t-112 -46.5t-138.5 1t-129.5 48.5z" />
    <glyph glyph-name="scedilla" unicode="&#x15f;" horiz-adv-x="1053" 
d="M547 -26q-140 0 -236 39.5t-146.5 110t-52.5 165.5h179q4 -83 66.5 -123t169.5 -40q57 0 103.5 18t74 49t27.5 70q0 49 -36 77.5t-116 50.5l-197 67q-118 40 -181 106.5t-63 159.5q0 119 106 191.5t281 72.5q181 0 279.5 -76.5t102.5 -191.5h-183q-7 57 -56.5 87.5
t-142.5 30.5q-87 0 -136.5 -38t-49.5 -86q0 -86 148 -128l207 -73q118 -38 182 -98t64 -152q0 -74 -49 -140t-137.5 -107.5t-207.5 -41.5zM337 -360l29 73q71 -36 127.5 -41t90.5 14t37 53q3 32 -23.5 56t-70.5 41.5t-96 29.5l74 201l96 -11l-69 -186l-34 59
q93 -18 153.5 -47.5t89 -68t25.5 -84.5q-4 -57 -49 -92t-112 -46.5t-138.5 1t-129.5 48.5z" />
    <glyph glyph-name="Scaron" unicode="&#x160;" horiz-adv-x="1237" 
d="M619 -26q-130 0 -239 46.5t-175.5 138.5t-69.5 230h186q0 -83 40.5 -136t107.5 -78.5t148 -25.5q82 0 145 25t97.5 67t34.5 96q0 73 -45 117.5t-137 75.5l-237 88q-153 57 -233 131.5t-80 207.5q0 151 118 245.5t332 94.5q203 0 315.5 -94t128.5 -256h-187
q-14 82 -76.5 130t-180.5 48q-114 0 -178 -49.5t-64 -124.5q0 -62 40.5 -99t126.5 -67l270 -99q139 -49 217 -132t78 -211q0 -108 -56 -191t-164 -130.5t-263 -47.5zM623 1422l-333 308l113 89l253 -264h-66l255 264l113 -89z" />
    <glyph glyph-name="scaron" unicode="&#x161;" horiz-adv-x="1053" 
d="M547 -26q-140 0 -236 39.5t-146.5 110t-52.5 165.5h179q4 -83 66.5 -123t169.5 -40q57 0 103.5 18t74 49t27.5 70q0 49 -36 77.5t-116 50.5l-197 67q-118 40 -181 106.5t-63 159.5q0 119 106 191.5t281 72.5q181 0 279.5 -76.5t102.5 -191.5h-183q-7 57 -56.5 87.5
t-142.5 30.5q-87 0 -136.5 -38t-49.5 -86q0 -86 148 -128l207 -73q118 -38 182 -98t64 -152q0 -74 -49 -140t-137.5 -107.5t-207.5 -41.5zM531 1111l-333 308l113 89l253 -264h-66l255 264l113 -89z" />
    <glyph glyph-name="uni0162" unicode="&#x162;" horiz-adv-x="1027" 
d="M12 1110v164h1004v-164h-450l43 44v-1154h-190v1154l42 -44h-449zM272 -363l29 73q71 -36 127.5 -41t90.5 14t37 53q3 32 -23.5 56t-70.5 41.5t-96 29.5l74 201l96 -11l-69 -186l-34 59q93 -18 153.5 -47.5t89 -68t25.5 -84.5q-4 -57 -49 -92t-112 -46.5t-138.5 1
t-129.5 48.5z" />
    <glyph glyph-name="uni0163" unicode="&#x163;" horiz-adv-x="768" 
d="M504 -26q-82 0 -148 31t-104.5 93.5t-38.5 157.5v968h189v-962q0 -136 127 -136q39 0 76 8.5t84 25.5l27 -135q-53 -22 -104.5 -36.5t-107.5 -14.5zM66 833v129h621v-129h-621zM246 -357l29 73q71 -36 127.5 -41t90.5 14t37 53q3 32 -23.5 56t-70.5 41.5t-96 29.5l74 201
l96 -11l-69 -186l-34 59q93 -18 153.5 -47.5t89 -68t25.5 -84.5q-4 -57 -49 -92t-112 -46.5t-138.5 1t-129.5 48.5z" />
    <glyph glyph-name="Tcaron" unicode="&#x164;" horiz-adv-x="1027" 
d="M12 1110v164h1004v-164h-450l43 44v-1154h-190v1154l42 -44h-449zM519 1422l-333 308l113 89l253 -264h-66l255 264l113 -89z" />
    <glyph glyph-name="tcaron" unicode="&#x165;" horiz-adv-x="768" 
d="M504 -26q-82 0 -148 31t-104.5 93.5t-38.5 157.5v968h189v-962q0 -136 127 -136q39 0 76 8.5t84 25.5l27 -135q-53 -22 -104.5 -36.5t-107.5 -14.5zM66 833v129h621v-129h-621zM383 1301l-333 308l113 89l253 -264h-66l255 264l113 -89z" />
    <glyph glyph-name="Tbar" unicode="&#x166;" horiz-adv-x="1027" 
d="M12 1110v164h1004v-164h-450l43 44v-1154h-190v1154l42 -44h-449zM163.458 528.677v154.784h681.409v-154.784h-681.409z" />
    <glyph glyph-name="tbar" unicode="&#x167;" horiz-adv-x="768" 
d="M504 -26q-82 0 -148 31t-104.5 93.5t-38.5 157.5v968h189v-962q0 -136 127 -136q39 0 76 8.5t84 25.5l27 -135q-53 -22 -104.5 -36.5t-107.5 -14.5zM66 833v129h621v-129h-621zM77.8018 535.291v142.241h570.631v-142.241h-570.631z" />
    <glyph glyph-name="Umacron" unicode="&#x16a;" horiz-adv-x="1338" 
d="M171 1274h190v-805q0 -170 85.5 -245t222.5 -75t222 75t85 245v805h190v-805q0 -160 -60 -270.5t-171.5 -167.5t-265.5 -57q-153 0 -265 57t-172.5 167.5t-60.5 270.5v805zM342 1636h653v-157h-653v157z" />
    <glyph glyph-name="umacron" unicode="&#x16b;" horiz-adv-x="1229" 
d="M843 965h191v-965h-191v965zM171 965h190v-596q0 -109 53.5 -165t150.5 -56q82 0 144.5 43t98 122t35.5 187h61q0 -169 -46 -284t-129 -174.5t-194 -59.5q-106 0 -188.5 39t-129 120.5t-46.5 210.5v613zM306 1325h653v-157h-653v157z" />
    <glyph glyph-name="Uring" unicode="&#x16e;" horiz-adv-x="1338" 
d="M171 1274h190v-805q0 -170 85.5 -245t222.5 -75t222 75t85 245v805h190v-805q0 -160 -60 -270.5t-171.5 -167.5t-265.5 -57q-153 0 -265 57t-172.5 167.5t-60.5 270.5v805zM670 1383q-60 0 -109 29t-78 78t-29 109q0 59 29 108t78 79t109 30q59 0 108 -30t78.5 -79
t29.5 -108q0 -60 -29.5 -109t-78.5 -78t-108 -29zM670 1514q36 0 60.5 24.5t24.5 60.5t-24.5 60.5t-60.5 24.5t-60.5 -24.5t-24.5 -60.5t24.5 -60.5t60.5 -24.5z" />
    <glyph glyph-name="uring" unicode="&#x16f;" horiz-adv-x="1229" 
d="M843 965h191v-965h-191v965zM171 965h190v-596q0 -109 53.5 -165t150.5 -56q82 0 144.5 43t98 122t35.5 187h61q0 -169 -46 -284t-129 -174.5t-194 -59.5q-106 0 -188.5 39t-129 120.5t-46.5 210.5v613zM633 1072q-60 0 -109 29t-78 78t-29 109q0 59 29 108t78 79t109 30
q59 0 108 -30t78.5 -79t29.5 -108q0 -60 -29.5 -109t-78.5 -78t-108 -29zM633 1203q36 0 60.5 24.5t24.5 60.5t-24.5 60.5t-60.5 24.5t-60.5 -24.5t-24.5 -60.5t24.5 -60.5t60.5 -24.5z" />
    <glyph glyph-name="Uhungarumlaut" unicode="&#x170;" horiz-adv-x="1338" 
d="M171 1274h190v-805q0 -170 85.5 -245t222.5 -75t222 75t85 245v805h190v-805q0 -160 -60 -270.5t-171.5 -167.5t-265.5 -57q-153 0 -265 57t-172.5 167.5t-60.5 270.5v805zM828 1410l-99 17l31 331l139 -29zM578 1422l-101 12l14 334l142 -21z" />
    <glyph glyph-name="uhungarumlaut" unicode="&#x171;" horiz-adv-x="1229" 
d="M843 965h191v-965h-191v965zM171 965h190v-596q0 -109 53.5 -165t150.5 -56q82 0 144.5 43t98 122t35.5 187h61q0 -169 -46 -284t-129 -174.5t-194 -59.5q-106 0 -188.5 39t-129 120.5t-46.5 210.5v613zM791 1099l-99 17l31 331l139 -29zM541 1111l-101 12l14 334
l142 -21z" />
    <glyph glyph-name="Uogonek" unicode="&#x172;" horiz-adv-x="1338" 
d="M171 1274h190v-805q0 -170 85.5 -245t222.5 -75t222 75t85 245v805h190v-805q0 -160 -60 -270.5t-171.5 -167.5t-265.5 -57q-153 0 -265 57t-172.5 167.5t-60.5 270.5v805zM932 -329q-63 -34 -131 -53t-132 -19q-102 0 -166 46.5t-64 129.5q0 76 58 147.5t174 116.5
l135 -39q-109 -41 -172 -88t-63 -102q0 -43 35 -61.5t81 -18.5q45 0 92 15t108 47z" />
    <glyph glyph-name="uogonek" unicode="&#x173;" horiz-adv-x="1229" 
d="M843 965h191v-965h-191v965zM171 965h190v-596q0 -109 53.5 -165t150.5 -56q82 0 144.5 43t98 122t35.5 187h61q0 -169 -46 -284t-129 -174.5t-194 -59.5q-106 0 -188.5 39t-129 120.5t-46.5 210.5v613zM1160 -329q-63 -34 -131 -53t-132 -19q-102 0 -166 46.5t-64 129.5
q0 76 58 147.5t174 116.5l135 -39q-109 -41 -172 -88t-63 -102q0 -43 35 -61.5t81 -18.5q45 0 92 15t108 47z" />
    <glyph glyph-name="Wcircumflex" unicode="&#x174;" horiz-adv-x="1833" 
d="M25 1274h213l321 -1106h-52l324 994h129l326 -983h-48l355 1095h214l-445 -1274h-200l-275 816h27l-281 -816h-199zM690 1414l-113 89l333 309l335 -309l-113 -89l-255 246h66z" />
    <glyph glyph-name="wcircumflex" unicode="&#x175;" horiz-adv-x="1477" 
d="M31 962h198l229 -772h-21l221 723h165l220 -725h-20l229 774h190l-316 -962h-186l-218 680h29l-215 -680h-186zM517 1090l-113 89l333 309l335 -309l-113 -89l-255 246h66z" />
    <glyph glyph-name="Ycircumflex" unicode="&#x176;" horiz-adv-x="1129" 
d="M16 1274h227l339 -588h-42l347 588h225l-457 -749v-525h-191v525zM344 1401l-113 89l333 309l335 -309l-113 -89l-255 246h66z" />
    <glyph glyph-name="ycircumflex" unicode="&#x177;" horiz-adv-x="963" 
d="M42 962h213l290 -796h-39l233 796h194l-365 -1147q-50 -156 -128.5 -233.5t-196.5 -77.5q-66 0 -126.5 17t-123.5 50v171q54 -38 104 -55t104 -17t92.5 32.5t65 86t45.5 116.5l29 95zM261 1090l-113 89l333 309l335 -309l-113 -89l-255 246h66z" />
    <glyph glyph-name="Ydieresis" unicode="&#x178;" horiz-adv-x="1129" 
d="M16 1274h227l339 -588h-42l347 588h225l-457 -749v-525h-191v525zM742 1451q-49 0 -84 32.5t-35 81.5q0 48 35 81.5t84 33.5q52 0 87 -33.5t35 -81.5q0 -49 -35 -81.5t-87 -32.5zM387 1451q-52 0 -85.5 32.5t-33.5 79.5q0 50 33.5 82.5t85.5 32.5t86.5 -32.5t34.5 -82.5
q0 -47 -34.5 -79.5t-86.5 -32.5z" />
    <glyph glyph-name="Zacute" unicode="&#x179;" horiz-adv-x="1215" 
d="M146 0v167l763 999v-70l-763 4v174h948v-167l-730 -957l-10 28l740 -4v-174h-948zM577 1427l-93 76l352 360l129 -105z" />
    <glyph glyph-name="zacute" unicode="&#x17a;" horiz-adv-x="966" 
d="M109 0v154l539 655h-539v153h751v-153l-527 -655h527v-154h-751zM423 1116l-93 76l352 360l129 -105z" />
    <glyph glyph-name="Zdotaccent" unicode="&#x17b;" horiz-adv-x="1215" 
d="M146 0v167l763 999v-70l-763 4v174h948v-167l-730 -957l-10 28l740 -4v-174h-948zM515.963 1586.89q0 54.9443 37.7734 93.208q37.7744 38.2646 95.6611 38.2646q57.8877 0 98.1143 -38.2646q40.2266 -38.2637 40.2266 -93.208q0 -53.9629 -40.2266 -90.7559
q-40.2266 -36.792 -98.1143 -36.792q-57.8867 0 -95.6611 37.2832q-37.7734 37.2832 -37.7734 90.2646z" />
    <glyph glyph-name="zdotaccent" unicode="&#x17c;" horiz-adv-x="966" 
d="M109 0v154l539 655h-539v153h751v-153l-527 -655h527v-154h-751zM360.963 1275.89q0 54.9443 37.7734 93.208q37.7744 38.2646 95.6611 38.2646q57.8877 0 98.1143 -38.2646q40.2266 -38.2637 40.2266 -93.208q0 -53.9629 -40.2266 -90.7559
q-40.2266 -36.792 -98.1143 -36.792q-57.8867 0 -95.6611 37.2832q-37.7734 37.2832 -37.7734 90.2646z" />
    <glyph glyph-name="Zcaron" unicode="&#x17d;" horiz-adv-x="1215" 
d="M146 0v167l763 999v-70l-763 4v174h948v-167l-730 -957l-10 28l740 -4v-174h-948zM643 1422l-333 308l113 89l253 -264h-66l255 264l113 -89z" />
    <glyph glyph-name="zcaron" unicode="&#x17e;" horiz-adv-x="966" 
d="M109 0v154l539 655h-539v153h751v-153l-527 -655h527v-154h-751zM488 1111l-333 308l113 89l253 -264h-66l255 264l113 -89z" />
    <glyph glyph-name="florin" unicode="&#x192;" horiz-adv-x="692" 
d="M17 833l9 129h531l-9 -129h-531zM-163 -414l46 148q27 -9 55 -15t54 -6q31 0 61 11.5t51 41.5t25 85l87 1246q7 100 49.5 162.5t109 92.5t144.5 30q43 0 89.5 -6t90.5 -18l-48 -148q-27 10 -54.5 16t-54.5 6q-30 0 -59.5 -11.5t-50.5 -41.5t-26 -85l-86 -1246
q-7 -99 -50.5 -162.5t-109.5 -93.5t-144 -30q-43 0 -89 6.5t-90 17.5z" />
    <glyph glyph-name="uni0218" unicode="&#x218;" horiz-adv-x="1237" 
d="M619 -26q-130 0 -239 46.5t-175.5 138.5t-69.5 230h186q0 -83 40.5 -136t107.5 -78.5t148 -25.5q82 0 145 25t97.5 67t34.5 96q0 73 -45 117.5t-137 75.5l-237 88q-153 57 -233 131.5t-80 207.5q0 151 118 245.5t332 94.5q203 0 315.5 -94t128.5 -256h-187
q-14 82 -76.5 130t-180.5 48q-114 0 -178 -49.5t-64 -124.5q0 -62 40.5 -99t126.5 -67l270 -99q139 -49 217 -132t78 -211q0 -108 -56 -191t-164 -130.5t-263 -47.5zM576 -443l-97 50q51 25 87.5 55.5t49.5 73.5q-37 4 -61.5 27t-21.5 60q2 37 31 62t71 25q50 0 81 -36.5
t27 -94.5q-2 -59 -45 -121.5t-122 -100.5z" />
    <glyph glyph-name="uni0219" unicode="&#x219;" horiz-adv-x="1053" 
d="M547 -26q-140 0 -236 39.5t-146.5 110t-52.5 165.5h179q4 -83 66.5 -123t169.5 -40q57 0 103.5 18t74 49t27.5 70q0 49 -36 77.5t-116 50.5l-197 67q-118 40 -181 106.5t-63 159.5q0 119 106 191.5t281 72.5q181 0 279.5 -76.5t102.5 -191.5h-183q-7 57 -56.5 87.5
t-142.5 30.5q-87 0 -136.5 -38t-49.5 -86q0 -86 148 -128l207 -73q118 -38 182 -98t64 -152q0 -74 -49 -140t-137.5 -107.5t-207.5 -41.5zM487 -442l-97 50q51 25 87.5 55.5t49.5 73.5q-37 4 -61.5 27t-21.5 60q2 37 31 62t71 25q50 0 81 -36.5t27 -94.5q-2 -59 -45 -121.5
t-122 -100.5z" />
    <glyph glyph-name="uni021A" unicode="&#x21a;" horiz-adv-x="1027" 
d="M12 1110v164h1004v-164h-450l43 44v-1154h-190v1154l42 -44h-449zM423 -445l-97 50q51 25 87.5 55.5t49.5 73.5q-37 4 -61.5 27t-21.5 60q2 37 31 62t71 25q50 0 81 -36.5t27 -94.5q-2 -59 -45 -121.5t-122 -100.5z" />
    <glyph glyph-name="uni021B" unicode="&#x21b;" horiz-adv-x="768" 
d="M504 -26q-82 0 -148 31t-104.5 93.5t-38.5 157.5v968h189v-962q0 -136 127 -136q39 0 76 8.5t84 25.5l27 -135q-53 -22 -104.5 -36.5t-107.5 -14.5zM66 833v129h621v-129h-621zM397 -439l-97 50q51 25 87.5 55.5t49.5 73.5q-37 4 -61.5 27t-21.5 60q2 37 31 62t71 25
q50 0 81 -36.5t27 -94.5q-2 -59 -45 -121.5t-122 -100.5z" />
    <glyph glyph-name="uni0237" unicode="&#x237;" horiz-adv-x="645" 
d="M110 -496q-73 0 -138.5 17.5t-134.5 51.5l6 164q56 -29 112 -48t114 -19q79 0 122 48.5t43 156.5v1091h189v-1093q0 -198 -85 -283.5t-228 -85.5z" />
    <glyph glyph-name="apostrophe" unicode="&#x2bc;" horiz-adv-x="411" 
d="M214 809l-142 71q61 31 105 69t58 91q-48 7 -82 37t-34 79q0 50 37.5 84.5t95.5 34.5q73 0 116.5 -52t43.5 -124q0 -83 -51.5 -162.5t-146.5 -127.5z" />
    <glyph glyph-name="circumflex" unicode="&#x2c6;" horiz-adv-x="865" 
d="M212 1100l-113 89l333 309l335 -309l-113 -89l-255 246h66z" />
    <glyph glyph-name="caron" unicode="&#x2c7;" horiz-adv-x="865" 
d="M432 1111l-333 308l113 89l253 -264h-66l255 264l113 -89z" />
    <glyph glyph-name="breve" unicode="&#x2d8;" horiz-adv-x="785" 
d="M393 1156q-136 0 -215 76.5t-79 202.5h153q0 -73 38 -112.5t103 -39.5t102.5 39.5t37.5 112.5h154q0 -126 -79 -202.5t-215 -76.5z" />
    <glyph glyph-name="dotaccent" unicode="&#x2d9;" horiz-adv-x="465" 
d="M98.9629 1277.89q0 54.9443 37.7734 93.208q37.7744 38.2646 95.6611 38.2646q57.8877 0 98.1143 -38.2646q40.2266 -38.2637 40.2266 -93.208q0 -53.9629 -40.2266 -90.7559q-40.2266 -36.792 -98.1143 -36.792q-57.8867 0 -95.6611 37.2832
q-37.7734 37.2832 -37.7734 90.2646z" />
    <glyph glyph-name="ring" unicode="&#x2da;" horiz-adv-x="630" 
d="M315 1312q-60 0 -109 29t-78 78t-29 109q0 59 29 108t78 79t109 30q59 0 108 -30t78.5 -79t29.5 -108q0 -60 -29.5 -109t-78.5 -78t-108 -29zM315 1443q36 0 60.5 24.5t24.5 60.5t-24.5 60.5t-60.5 24.5t-60.5 -24.5t-24.5 -60.5t24.5 -60.5t60.5 -24.5z" />
    <glyph glyph-name="ogonek" unicode="&#x2db;" horiz-adv-x="690" 
d="M592 -363q-63 -34 -131 -53t-132 -19q-102 0 -166 46.5t-64 129.5q0 76 58 147.5t174 116.5l135 -39q-109 -41 -172 -88t-63 -102q0 -43 35 -61.5t81 -18.5q45 0 92 15t108 47z" />
    <glyph glyph-name="tilde" unicode="&#x2dc;" horiz-adv-x="853" 
d="M176 1122l-77 48q24 109 74.5 168t118.5 59q28 0 57.5 -10t88.5 -41q58 -29 82.5 -39.5t47.5 -10.5q29 0 57 24.5t49 76.5l81 -54q-14 -67 -43 -116.5t-65.5 -77t-73.5 -27.5q-33 0 -67 13t-96 45q-52 27 -74.5 36t-43.5 9q-31 0 -60 -22t-56 -81z" />
    <glyph glyph-name="hungarumlaut" unicode="&#x2dd;" horiz-adv-x="619" 
d="M450 1099l-99 17l31 331l139 -29zM200 1111l-101 12l14 334l142 -21z" />
    <glyph glyph-name="gravecomb" unicode="&#x300;" horiz-adv-x="0" 
d="M485 1121l-389 331l130 105l352 -360z" />
    <glyph glyph-name="acutecomb" unicode="&#x301;" horiz-adv-x="0" 
d="M192 1121l-93 76l352 360l129 -105z" />
    <glyph glyph-name="uni0302" unicode="&#x302;" horiz-adv-x="0" 
d="M212 1100l-113 89l333 309l335 -309l-113 -89l-255 246h66z" />
    <glyph glyph-name="tildecomb" unicode="&#x303;" horiz-adv-x="0" 
d="M123 1122l-77 48q24 109 74.5 168t118.5 59q28 0 57.5 -10t88.5 -41q58 -29 82.5 -39.5t47.5 -10.5q29 0 57 24.5t49 76.5l81 -54q-14 -67 -43 -116.5t-65.5 -77t-73.5 -27.5q-33 0 -67 13t-96 45q-52 27 -74.5 36t-43.5 9q-31 0 -60 -22t-56 -81z" />
    <glyph glyph-name="uni0304" unicode="&#x304;" horiz-adv-x="0" 
d="M273 1325h653v-157h-653v157z" />
    <glyph glyph-name="uni0306" unicode="&#x306;" horiz-adv-x="0" 
d="M393 1156q-136 0 -215 76.5t-79 202.5h153q0 -73 38 -112.5t103 -39.5t102.5 39.5t37.5 112.5h154q0 -126 -79 -202.5t-215 -76.5z" />
    <glyph glyph-name="uni0307" unicode="&#x307;" horiz-adv-x="0" 
d="M98.9629 1277.89q0 54.9443 37.7734 93.208q37.7744 38.2646 95.6611 38.2646q57.8877 0 98.1143 -38.2646q40.2266 -38.2637 40.2266 -93.208q0 -53.9629 -40.2266 -90.7559q-40.2266 -36.792 -98.1143 -36.792q-57.8867 0 -95.6611 37.2832
q-37.7734 37.2832 -37.7734 90.2646z" />
    <glyph glyph-name="uni0308" unicode="&#x308;" horiz-adv-x="0" 
d="M573 1140q-49 0 -84 32.5t-35 81.5q0 48 35 81.5t84 33.5q52 0 87 -33.5t35 -81.5q0 -49 -35 -81.5t-87 -32.5zM218 1140q-52 0 -85.5 32.5t-33.5 79.5q0 50 33.5 82.5t85.5 32.5t86.5 -32.5t34.5 -82.5q0 -47 -34.5 -79.5t-86.5 -32.5z" />
    <glyph glyph-name="uni030A" unicode="&#x30a;" horiz-adv-x="0" 
d="M315 1312q-60 0 -109 29t-78 78t-29 109q0 59 29 108t78 79t109 30q59 0 108 -30t78.5 -79t29.5 -108q0 -60 -29.5 -109t-78.5 -78t-108 -29zM315 1443q36 0 60.5 24.5t24.5 60.5t-24.5 60.5t-60.5 24.5t-60.5 -24.5t-24.5 -60.5t24.5 -60.5t60.5 -24.5z" />
    <glyph glyph-name="uni030B" unicode="&#x30b;" horiz-adv-x="0" 
d="M450 1099l-99 17l31 331l139 -29zM200 1111l-101 12l14 334l142 -21z" />
    <glyph glyph-name="uni030C" unicode="&#x30c;" horiz-adv-x="0" 
d="M432 1111l-333 308l113 89l253 -264h-66l255 264l113 -89z" />
    <glyph glyph-name="uni0312" unicode="&#x312;" horiz-adv-x="0" 
d="M267 1389l97 -50q-51 -25 -87.5 -55.5t-49.5 -73.5q37 -4 61.5 -27t21.5 -60q-2 -37 -31 -62t-71 -25q-50 0 -81 36.5t-27 94.5q2 59 45 121.5t122 100.5z" />
    <glyph glyph-name="uni0326" unicode="&#x326;" horiz-adv-x="0" 
d="M196 -443l-97 50q51 25 87.5 55.5t49.5 73.5q-37 4 -61.5 27t-21.5 60q2 37 31 62t71 25q50 0 81 -36.5t27 -94.5q-2 -59 -45 -121.5t-122 -100.5z" />
    <glyph glyph-name="uni0327" unicode="&#x327;" horiz-adv-x="0" 
d="M99 -361l29 73q71 -36 127.5 -41t90.5 14t37 53q3 32 -23.5 56t-70.5 41.5t-96 29.5l74 201l96 -11l-69 -186l-34 59q93 -18 153.5 -47.5t89 -68t25.5 -84.5q-4 -57 -49 -92t-112 -46.5t-138.5 1t-129.5 48.5z" />
    <glyph glyph-name="uni0328" unicode="&#x328;" horiz-adv-x="0" 
d="M592 -363q-63 -34 -131 -53t-132 -19q-102 0 -166 46.5t-64 129.5q0 76 58 147.5t174 116.5l135 -39q-109 -41 -172 -88t-63 -102q0 -43 35 -61.5t81 -18.5q45 0 92 15t108 47z" />
    <glyph glyph-name="uni0394" unicode="&#x394;" horiz-adv-x="1192" 
d="M49 0l436 1274h235l423 -1274h-200l-344 1045l-350 -1045h-200zM160 0v165h857v-165h-857z" />
    <glyph glyph-name="uni03A9" unicode="&#x3a9;" horiz-adv-x="1323" 
d="M561 36q-84 0 -166.5 37.5t-149.5 112.5t-106.5 187.5t-39.5 262.5q0 224 72.5 370.5t199.5 218.5t290 72q164 0 291.5 -73t200 -220.5t72.5 -367.5q0 -151 -40 -264t-107 -187.5t-149.5 -111.5t-168.5 -37v93q64 0 125.5 61t102 175t40.5 273q0 234 -98.5 361.5
t-268.5 127.5q-167 0 -266 -128t-99 -363q0 -158 40.5 -271.5t102 -174.5t122.5 -61v-93zM99 -1v130h462v-130h-462zM760 -1v130h463v-130h-463z" />
    <glyph glyph-name="uni03BC" unicode="&#x3bc;" horiz-adv-x="1229" 
d="M843 965h191v-965h-191v965zM171 965h190v-596q0 -109 53.5 -165t150.5 -56q82 0 144.5 43t98 122t35.5 187h61q0 -169 -46 -284t-129 -174.5t-194 -59.5q-106 0 -188.5 39t-129 120.5t-46.5 210.5v613zM171 -402v1367h190v-1367h-190z" />
    <glyph glyph-name="pi" unicode="&#x3c0;" horiz-adv-x="1241" 
d="M1092 -10q-105 0 -181.5 46.5t-117.5 136t-41 218.5v572h189v-572q0 -123 58 -177.5t142 -54.5zM292 0v962h190v-962h-190zM51 799v165h1155v-165h-1155z" />
    <glyph glyph-name="Wgrave" unicode="&#x1e80;" horiz-adv-x="1833" 
d="M25 1274h213l321 -1106h-52l324 994h129l326 -983h-48l355 1095h214l-445 -1274h-200l-275 816h27l-281 -816h-199zM1060 1445l-389 331l130 105l352 -360z" />
    <glyph glyph-name="wgrave" unicode="&#x1e81;" horiz-adv-x="1477" 
d="M31 962h198l229 -772h-21l221 723h165l220 -725h-20l229 774h190l-316 -962h-186l-218 680h29l-215 -680h-186zM887 1121l-389 331l130 105l352 -360z" />
    <glyph glyph-name="Wacute" unicode="&#x1e82;" horiz-adv-x="1833" 
d="M25 1274h213l321 -1106h-52l324 994h129l326 -983h-48l355 1095h214l-445 -1274h-200l-275 816h27l-281 -816h-199zM850 1440l-93 76l352 360l129 -105z" />
    <glyph glyph-name="wacute" unicode="&#x1e83;" horiz-adv-x="1477" 
d="M31 962h198l229 -772h-21l221 723h165l220 -725h-20l229 774h190l-316 -962h-186l-218 680h29l-215 -680h-186zM677 1116l-93 76l352 360l129 -105z" />
    <glyph glyph-name="Wdieresis" unicode="&#x1e84;" horiz-adv-x="1833" 
d="M25 1274h213l321 -1106h-52l324 994h129l326 -983h-48l355 1095h214l-445 -1274h-200l-275 816h27l-281 -816h-199zM1087 1464q-49 0 -84 32.5t-35 81.5q0 48 35 81.5t84 33.5q52 0 87 -33.5t35 -81.5q0 -49 -35 -81.5t-87 -32.5zM732 1464q-52 0 -85.5 32.5t-33.5 79.5
q0 50 33.5 82.5t85.5 32.5t86.5 -32.5t34.5 -82.5q0 -47 -34.5 -79.5t-86.5 -32.5z" />
    <glyph glyph-name="wdieresis" unicode="&#x1e85;" horiz-adv-x="1477" 
d="M31 962h198l229 -772h-21l221 723h165l220 -725h-20l229 774h190l-316 -962h-186l-218 680h29l-215 -680h-186zM915 1140q-49 0 -84 32.5t-35 81.5q0 48 35 81.5t84 33.5q52 0 87 -33.5t35 -81.5q0 -49 -35 -81.5t-87 -32.5zM560 1140q-52 0 -85.5 32.5t-33.5 79.5
q0 50 33.5 82.5t85.5 32.5t86.5 -32.5t34.5 -82.5q0 -47 -34.5 -79.5t-86.5 -32.5z" />
    <glyph glyph-name="uni1E9E" unicode="&#x1e9e;" horiz-adv-x="1257" 
d="M1001 1076q0 -74 -27 -123.5t-62.5 -85t-63 -66t-27.5 -67.5q0 -39 33 -69.5t81 -60.5t96.5 -69t81 -95.5t32.5 -140.5q0 -97 -49 -170t-128.5 -113.5t-173.5 -40.5q-57 0 -127.5 16t-127.5 44l2 157q58 -40 115.5 -59.5t111.5 -19.5q61 0 98.5 23t54.5 60t17 80
q0 67 -31 113t-76 81t-90.5 68t-76 72.5t-30.5 94.5q0 54 29 93t67 74t67 76.5t29 100.5q0 77 -57.5 125t-158.5 48q-117 0 -170.5 -72t-53.5 -234v-916h-191v920q0 146 49.5 247t144.5 153t232 52q122 0 207 -38.5t129 -105.5t44 -152z" />
    <glyph glyph-name="Ygrave" unicode="&#x1ef2;" horiz-adv-x="1129" 
d="M16 1274h227l339 -588h-42l347 588h225l-457 -749v-525h-191v525zM714 1432l-389 331l130 105l352 -360z" />
    <glyph glyph-name="ygrave" unicode="&#x1ef3;" horiz-adv-x="963" 
d="M42 962h213l290 -796h-39l233 796h194l-365 -1147q-50 -156 -128.5 -233.5t-196.5 -77.5q-66 0 -126.5 17t-123.5 50v171q54 -38 104 -55t104 -17t92.5 32.5t65 86t45.5 116.5l29 95zM631 1121l-389 331l130 105l352 -360z" />
    <glyph glyph-name="endash" unicode="&#x2013;" horiz-adv-x="990" 
d="M110 508v166h770v-166h-770z" />
    <glyph glyph-name="emdash" unicode="&#x2014;" horiz-adv-x="1486" 
d="M110 508v166h1268v-166h-1268z" />
    <glyph glyph-name="quoteleft" unicode="&#x2018;" horiz-adv-x="475" 
d="M232 804q-47 0 -83 25t-56.5 66.5t-20.5 91.5q0 83 55.5 160.5t150.5 126.5l134 -73q-61 -30 -105 -69.5t-60 -92.5q51 -6 84.5 -34.5t33.5 -77.5q0 -50 -36.5 -86.5t-96.5 -36.5z" />
    <glyph glyph-name="quoteright" unicode="&#x2019;" horiz-adv-x="475" 
d="M176 804l-134 74q61 30 105.5 69.5t58.5 90.5q-51 7 -85 37t-34 78q0 52 39.5 86.5t97.5 34.5q49 0 84 -25t53.5 -66.5t18.5 -90.5q0 -84 -55 -160.5t-149 -127.5z" />
    <glyph glyph-name="quotesinglbase" unicode="&#x201a;" horiz-adv-x="507" 
d="M214 -241l-142 71q61 31 105 69t58 91q-48 7 -82 37t-34 79q0 50 37.5 84.5t95.5 34.5q73 0 116.5 -52t43.5 -124q0 -83 -51.5 -162.5t-146.5 -127.5z" />
    <glyph glyph-name="quotedblleft" unicode="&#x201c;" horiz-adv-x="879" 
d="M604 804q-47 0 -83 25t-56.5 66.5t-20.5 91.5q0 83 55.5 160.5t150.5 126.5l134 -73q-61 -30 -105 -69.5t-60 -92.5q51 -6 84.5 -34.5t33.5 -77.5q0 -50 -36.5 -86.5t-96.5 -36.5zM232 804q-47 0 -83 25t-56.5 66.5t-20.5 91.5q0 83 55.5 160.5t150.5 126.5l134 -73
q-61 -30 -105 -69.5t-60 -92.5q51 -6 84.5 -34.5t33.5 -77.5q0 -50 -36.5 -86.5t-96.5 -36.5z" />
    <glyph glyph-name="quotedblright" unicode="&#x201d;" horiz-adv-x="869" 
d="M570 804l-134 74q61 30 105.5 69.5t58.5 90.5q-51 7 -85 37t-34 78q0 52 39.5 86.5t97.5 34.5q49 0 84 -25t53.5 -66.5t18.5 -90.5q0 -84 -55 -160.5t-149 -127.5zM206 804l-134 74q61 30 105.5 69.5t58.5 90.5q-51 7 -85 37t-34 78q0 52 39.5 86.5t97.5 34.5
q49 0 84 -25t53.5 -66.5t18.5 -90.5q0 -84 -55 -160.5t-149 -127.5z" />
    <glyph glyph-name="quotedblbase" unicode="&#x201e;" horiz-adv-x="940" 
d="M647 -241l-142 71q61 31 105 69t58 91q-48 7 -82 37t-34 79q0 50 37.5 84.5t95.5 34.5q73 0 116.5 -52t43.5 -124q0 -83 -51.5 -162.5t-146.5 -127.5zM214 -241l-142 71q61 31 105 69t58 91q-48 7 -82 37t-34 79q0 50 37.5 84.5t95.5 34.5q73 0 116.5 -52t43.5 -124
q0 -83 -51.5 -162.5t-146.5 -127.5z" />
    <glyph glyph-name="dagger" unicode="&#x2020;" horiz-adv-x="1020" 
d="M420 -252l-22 1526h224l-25 -1526h-177zM87 776v127l423 16l423 -16v-127l-423 -17z" />
    <glyph glyph-name="daggerdbl" unicode="&#x2021;" horiz-adv-x="1020" 
d="M420 -252l-22 1526h224l-25 -1526h-177zM87 776v127l423 16l423 -16v-127l-423 -17zM87 435v126l423 15l423 -15v-126l-423 -18z" />
    <glyph glyph-name="bullet" unicode="&#x2022;" horiz-adv-x="593" 
d="M57.2617 571.104q0 102.084 70.1826 173.179q70.1836 71.0947 177.736 71.0947q107.554 0 182.294 -71.0947t74.7402 -173.179q0 -100.262 -74.7402 -168.622t-182.294 -68.3604q-107.553 0 -177.736 69.2725q-70.1826 69.2715 -70.1826 167.71z" />
    <glyph glyph-name="ellipsis" unicode="&#x2026;" horiz-adv-x="1184" 
d="M55 112q0 56 38.5 95t97.5 39t100 -39t41 -95q0 -55 -41 -92.5t-100 -37.5t-97.5 38t-38.5 92zM463 112q0 56 38.5 95t97.5 39t100 -39t41 -95q0 -55 -41 -92.5t-100 -37.5t-97.5 38t-38.5 92zM850 112q0 56 38.5 95t97.5 39t100 -39t41 -95q0 -55 -41 -92.5t-100 -37.5
t-97.5 38t-38.5 92z" />
    <glyph glyph-name="perthousand" unicode="&#x2030;" horiz-adv-x="2405" 
d="M407 574q-138 0 -223 99.5t-85 299.5q0 202 85 300.5t223 98.5q137 0 223 -98.5t86 -300.5q0 -200 -86 -299.5t-223 -99.5zM407 679q92 0 141 76.5t49 217.5q0 142 -49 218.5t-141 76.5t-141 -76.5t-49 -218.5q0 -141 49 -217.5t141 -76.5zM1286 -26q-138 0 -223 99.5
t-85 299.5q0 202 85 300.5t223 98.5q137 0 223 -98.5t86 -300.5q0 -200 -86 -299.5t-223 -99.5zM1286 79q92 0 141 76.5t49 217.5q0 142 -49 218.5t-141 76.5t-141 -76.5t-49 -218.5q0 -141 49 -217.5t141 -76.5zM1999 -26q-138 0 -223 99.5t-85 299.5q0 202 85 300.5
t223 98.5q137 0 223 -98.5t86 -300.5q0 -200 -86 -299.5t-223 -99.5zM1999 79q92 0 141 76.5t49 217.5q0 142 -49 218.5t-141 76.5t-141 -76.5t-49 -218.5q0 -141 49 -217.5t141 -76.5zM294.516 -19.374l963.788 1381.51h148.555l-966.085 -1381.51h-146.258z" />
    <glyph glyph-name="guilsinglleft" unicode="&#x2039;" horiz-adv-x="743" 
d="M277 505l368 365l-135 94l-411 -430l411 -430l135 94l-368 365v-58z" />
    <glyph glyph-name="guilsinglright" unicode="&#x203a;" horiz-adv-x="743" 
d="M233 104l-134 94l367 365v-58l-367 365l134 94l412 -430z" />
    <glyph glyph-name="fraction" unicode="&#x2044;" horiz-adv-x="556" 
d="M-276.484 -19.374l963.788 1381.51h148.555l-966.085 -1381.51h-146.258z" />
    <glyph glyph-name="uni2070" unicode="&#x2070;" horiz-adv-x="836" 
d="M418.875 470.75q-95.625 0 -167.812 45.625t-112.188 137.5t-40 231.25q0 138.75 40 230.625t112.188 136.875t167.812 45q95 0 166.875 -45t112.188 -136.875t40.3125 -230.625q0 -139.375 -40.3125 -231.25t-112.188 -137.5t-166.875 -45.625zM418.875 580.125
q95 0 145.938 79.0625t50.9375 225.938q0 146.25 -50.9375 225.625t-145.938 79.375t-145.938 -79.375t-50.9375 -225.625q0 -146.875 50.9375 -225.938t145.938 -79.0625z" />
    <glyph glyph-name="uni2074" unicode="&#x2074;" horiz-adv-x="726" 
d="M447.113 1290.12h109.038v-500.007h133.134v-97.5908h-133.134v-179.521h-113.255v179.521h-393.378v87.3506zM447.716 1115.42l-262.653 -335.546h262.653v335.546z" />
    <glyph glyph-name="uni2075" unicode="&#x2075;" horiz-adv-x="778" 
d="M396.595 490.337q-77.1094 0 -138.556 27.4102q-61.4473 27.4102 -97.5918 80.1211q-36.1455 52.7119 -37.3496 128.616h115.664q0 -65.0605 45.4824 -97.8926t112.351 -32.832q74.6992 0 119.278 46.6875t44.5791 114.761q0 134.941 -176.509 134.941h-218.074
l34.3379 381.33h440.366v-104.821h-348.196l22.8916 36.1455l-24.0967 -250.003l-12.0488 11.4453q28.916 6.62695 66.8682 9.63867q37.9521 3.0127 66.8682 3.0127q121.688 0 193.678 -56.3262q71.9883 -56.3262 71.9883 -165.363q0 -75.3018 -34.6387 -135.845
t-97.8926 -95.7852q-63.2539 -35.2412 -149.399 -35.2412z" />
    <glyph glyph-name="uni2076" unicode="&#x2076;" horiz-adv-x="789" 
d="M413.498 500.337q-93.9766 0 -164.761 50.6035q-70.7842 50.6025 -109.94 137.652q-39.1572 87.0488 -39.1572 197.894q0 130.122 39.7588 221.991q39.7598 91.8682 112.652 140.362q72.8926 48.4951 172.291 48.4951q71.6875 0 126.508 -26.8076t87.3506 -75.001
t37.3496 -112.652h-123.495q-7.83203 51.2061 -37.9521 81.0254q-30.1211 29.8193 -86.748 29.8193q-98.7969 0 -155.726 -86.1455q-56.9277 -86.1455 -56.9277 -234.942q0 -20.4824 0.90332 -46.3857q0.90332 -25.9043 4.51855 -48.1934q7.22852 77.7119 39.1562 121.989
q31.9287 44.2773 79.2188 62.9521q47.2891 18.6748 99.6992 18.6748q70.4834 0 125.604 -30.7227q55.1211 -30.7236 86.748 -85.2422t31.627 -125.002q0 -71.6875 -33.7354 -125.904q-33.7354 -54.2178 -94.5801 -84.3389q-60.8438 -30.1211 -140.363 -30.1211z
M413.498 605.76q63.8564 0 106.628 37.6514q42.7725 37.6514 42.7725 100.905q0 65.6631 -42.7725 102.712q-42.7715 37.0488 -106.628 37.0488q-42.1689 0 -75.6025 -17.7715q-33.4346 -17.7715 -53.0127 -49.3984q-19.5791 -31.627 -19.5791 -72.5908
q0 -63.2539 42.7715 -100.905q42.7725 -37.6514 105.423 -37.6514z" />
    <glyph glyph-name="uni2077" unicode="&#x2077;" horiz-adv-x="613" 
d="M82.2539 506l360.848 657.84h-395.186v109.64h530.127v-107.833l-342.173 -659.646h-153.616z" />
    <glyph glyph-name="uni2078" unicode="&#x2078;" horiz-adv-x="840" 
d="M420.318 500.337q-93.9775 0 -164.762 28.916t-110.543 79.5195q-39.7598 50.6025 -39.7598 113.856q0 56.627 29.8193 96.6885q29.8193 40.0605 81.3262 61.7471q51.5068 21.6875 116.568 21.6875q21.084 0 39.7588 -2.71094q18.6758 -2.71094 41.5674 -8.73535
v-30.7236q-56.6279 0 -99.3994 -17.7705q-42.7715 -17.7715 -66.8682 -46.6875t-24.0967 -63.2539q0 -40.3623 25.9043 -68.9766q25.9043 -28.6152 70.4824 -43.374q44.5791 -14.7598 100.002 -14.7598q95.7842 0 146.086 28.3145q50.3018 28.3135 50.3018 73.4941
q0 36.1455 -25.6025 60.543q-25.6035 24.3984 -71.3867 41.2656l-214.461 82.5312q-38.5547 14.458 -78.916 40.9648q-40.3623 26.5059 -67.7725 65.9639q-27.4092 39.459 -27.4092 93.0732q0 61.4473 34.0361 107.833t98.7959 71.9893q64.7598 25.6025 156.328 25.6025
q81.9277 0 147.29 -28.0127q65.3623 -28.0117 102.713 -76.5068q37.3496 -48.4941 37.3496 -111.146q0 -45.7842 -24.0967 -85.2422q-24.0967 -39.459 -70.4824 -63.5547q-46.3867 -24.0977 -113.255 -24.0977q-19.2773 0 -35.8438 2.71094t-38.2539 9.33789v34.9404
q45.1816 0 82.2305 14.7588q37.0488 14.7598 59.0371 41.8682q21.9873 27.1084 21.9873 62.6514q0 34.9404 -21.3857 61.748t-59.3379 41.8672q-37.9521 15.0605 -87.9521 15.0605q-48.1934 0 -86.748 -14.1562q-38.5547 -14.1572 -60.8447 -38.2539
q-22.2891 -24.0967 -22.2891 -53.6152q0 -36.1445 24.3975 -58.1328q24.3984 -21.9883 68.9766 -38.8555l217.473 -83.7363q84.3389 -32.5303 129.52 -75.6035q45.1816 -43.0723 45.1816 -118.375q0 -62.0488 -37.3496 -110.242t-107.833 -75.3018
q-70.4824 -27.1094 -170.483 -27.1094z" />
    <glyph glyph-name="uni2079" unicode="&#x2079;" horiz-adv-x="801" 
d="M396.8 500.337q-77.1094 0 -137.954 31.0244q-60.8438 31.0244 -96.3867 85.8447q-35.542 54.8203 -35.542 125.905h119.278q2.40918 -62.6514 42.1689 -100.001q39.7598 -37.3506 104.82 -37.3506q69.2783 0 111.749 39.459q42.4697 39.458 62.3496 111.748
t19.8799 169.279q0 21.084 -1.20508 40.0605q-1.2041 18.9766 -4.2168 41.2656q-9.63867 -65.6631 -40.0605 -107.531t-76.2061 -62.0488q-45.7832 -20.1816 -101.809 -20.1816q-69.8799 0 -124.7 30.7236q-54.8193 30.7236 -86.4463 85.2422t-31.627 125.001
q0 72.29 33.7354 125.905t93.9766 83.1338q60.2422 29.5186 139.761 29.5186q66.8691 0 124.399 -27.1084q57.5312 -27.1094 100.001 -77.7119q42.4707 -50.6035 66.2666 -121.086q23.7949 -70.4834 23.7949 -157.833q0 -126.508 -33.4336 -219.28
q-33.4346 -92.7725 -101.206 -143.375q-67.7725 -50.6035 -171.388 -50.6035zM388.968 915.402q40.9648 0 75.001 18.0723q34.0371 18.0732 53.916 49.0977q19.8799 31.0244 19.8799 70.7832q0 65.0615 -43.6748 102.411q-43.6758 37.3506 -105.725 37.3506
q-63.2539 0 -106.025 -37.3506q-42.7715 -37.3496 -42.7715 -102.411q0 -64.458 42.7715 -101.205q42.7715 -36.748 106.628 -36.748z" />
    <glyph glyph-name="uni2080" unicode="&#x2080;" horiz-adv-x="836" 
d="M419 -26q-144 0 -232 103t-88 312q0 208 88 310.5t232 102.5q142 0 231 -102.5t89 -310.5q0 -209 -89 -312t-231 -103zM419 83q95 0 146 79.5t51 226.5t-51 226t-146 79t-146.5 -79t-51.5 -226t51.5 -226.5t146.5 -79.5z" />
    <glyph glyph-name="uni2081" unicode="&#x2081;" horiz-adv-x="526" 
d="M240 771h89v-771h-114v635q-30 -17 -61.5 -27t-62.5 -10v111q39 4 76.5 19t72.5 43z" />
    <glyph glyph-name="uni2082" unicode="&#x2082;" horiz-adv-x="809" 
d="M125 0v121q0 98 46 151.5t130 86.5l153 60q56 22 83.5 56t27.5 85q0 53 -37.5 87t-103.5 34t-109 -30t-50 -88h-127q4 72 40.5 120.5t99.5 73.5t144 25q76 0 136 -29t95 -80.5t35 -118.5q0 -88 -48.5 -144.5t-138.5 -92.5l-157 -62q-53 -20 -79 -47.5t-26 -71.5v-31h443
v-105h-557z" />
    <glyph glyph-name="uni2083" unicode="&#x2083;" horiz-adv-x="812" 
d="M406 -26q-79 0 -149 29t-114 85t-44 139h119q3 -71 56 -109.5t132 -38.5t123.5 38.5t44.5 94.5t-41.5 89.5t-134.5 33.5h-94v91h71q79 0 125 32.5t46 88.5q0 52 -38 86t-110 34q-57 0 -101.5 -23t-59.5 -83h-118q13 112 89.5 161t185.5 49q119 0 197 -59t78 -152
q0 -60 -33.5 -103t-97.5 -66q71 -22 115.5 -69t44.5 -120q0 -100 -79.5 -164t-212.5 -64z" />
    <glyph glyph-name="uni2084" unicode="&#x2084;" horiz-adv-x="726" 
d="M447 777h109v-500h133v-98h-133v-179h-113v179h-394v88zM448 602l-263 -335h263v335z" />
    <glyph glyph-name="uni2085" unicode="&#x2085;" horiz-adv-x="778" 
d="M397 -26q-77 0 -138.5 27.5t-97.5 80t-38 128.5h116q0 -65 46 -98t112 -33q75 0 119 47t44 115q0 134 -176 134h-218l35 382h440v-105h-348l23 37l-24 -251l-13 12q29 6 67 9.5t67 3.5q122 0 194 -57t72 -165q0 -75 -34.5 -135.5t-98 -96t-149.5 -35.5z" />
    <glyph glyph-name="uni2086" unicode="&#x2086;" horiz-adv-x="789" 
d="M413 -26q-94 0 -165 50t-110 137.5t-39 198.5q0 195 88 303t237 108q107 0 175.5 -59t75.5 -156h-123q-8 52 -38 81.5t-87 29.5q-99 0 -156 -86t-57 -235q0 -21 1 -46.5t5 -47.5q7 77 39 121.5t79.5 63t99.5 18.5q106 0 175 -68t69 -173q0 -107 -74.5 -173.5
t-194.5 -66.5zM413 79q63 0 106.5 37.5t43.5 101.5q0 66 -43.5 102.5t-106.5 36.5t-105.5 -39t-42.5 -100q0 -64 42.5 -101.5t105.5 -37.5z" />
    <glyph glyph-name="uni2087" unicode="&#x2087;" horiz-adv-x="613" 
d="M82 0l361 657h-395v111h530v-108l-342 -660h-154z" />
    <glyph glyph-name="uni2088" unicode="&#x2088;" horiz-adv-x="840" 
d="M420 -26q-140 0 -227.5 63.5t-87.5 158.5q0 85 65 132.5t163 47.5q20 0 39 -2.5t42 -9.5v-30q-84 0 -137 -38.5t-53 -89.5q0 -60 56.5 -93.5t139.5 -33.5q97 0 147 28.5t50 73.5q0 37 -26 60.5t-71 41.5l-215 82q-39 15 -79 41t-67.5 66t-27.5 93q0 93 76 149.5t213 56.5
q83 0 148 -28t102.5 -76.5t37.5 -111.5q0 -69 -54 -121t-154 -52q-19 0 -36 3t-38 9v35q67 0 115 33t48 86t-46.5 86t-122.5 33q-72 0 -121 -31t-49 -75q0 -36 24.5 -58t69.5 -39l217 -83q84 -33 129.5 -76t45.5 -119q0 -92 -82.5 -152t-233.5 -60z" />
    <glyph glyph-name="uni2089" unicode="&#x2089;" horiz-adv-x="801" 
d="M396 -26q-76 0 -137.5 31.5t-96.5 86t-35 124.5h119q2 -63 41.5 -100t105.5 -37q104 0 149 87.5t45 233.5q0 20 -1 39t-5 42q-14 -98 -74 -144t-144 -46q-104 0 -173 67.5t-69 173.5q0 108 74 173.5t193 65.5q90 0 161 -47.5t112 -134t41 -202.5q0 -189 -75 -301
t-231 -112zM388 388q62 0 105.5 39.5t43.5 99.5q0 65 -43.5 102t-105.5 37q-63 0 -106 -37t-43 -102t43 -102t106 -37z" />
    <glyph glyph-name="uni20A8" unicode="&#x20a8;" horiz-adv-x="1181" 
d="M176 1162v112h871v-112h-871zM176 851v113h871v-113h-871zM176 607h148l648 -607h-266l-530 493v114zM240 607h65q179 0 261.5 80t82.5 199t-82.5 197.5t-261.5 78.5h-65v81h65q184 0 305.5 -46t182 -126.5t60.5 -184.5q0 -110 -54 -199t-174.5 -141.5t-319.5 -52.5h-65
v114z" />
    <glyph glyph-name="Euro" unicode="&#x20ac;" horiz-adv-x="1243" 
d="M681 -26q-165 0 -287 82.5t-188.5 233t-66.5 353.5q0 214 71 359.5t194 220t277 74.5q209 0 333.5 -104.5t165.5 -271.5l-204 -39q-35 111 -112.5 177.5t-182.5 66.5q-90 0 -167 -54t-124 -161.5t-47 -267.5q0 -148 38.5 -259.5t114 -173.5t185.5 -62q136 0 215.5 74.5
t79.5 194.5h205q0 -140 -62 -238.5t-174.5 -151.5t-263.5 -53zM47 477v113h695v-113h-695zM47 686v114h695v-114h-695z" />
    <glyph glyph-name="trademark" unicode="&#x2122;" horiz-adv-x="1373" 
d="M6 1520v81h502v-81h-224l21 21v-577h-95v577l21 -21h-225zM612 1601h136l202 -418h-9l202 418h132v-637h-96v533h15l-218 -457h-62l-217 455h10v-531h-95v637z" />
    <glyph glyph-name="oneeighth" unicode="&#x215b;" horiz-adv-x="1920" 
d="M241 1371h88v-771h-114v635q-30 -18 -61.5 -27.5t-62.5 -9.5v111q39 4 76.5 19t73.5 43zM249.516 -19.374l963.788 1381.51h148.555l-966.085 -1381.51h-146.258zM1500 -26q-140 0 -227 63.5t-87 158.5q0 85 64.5 132.5t163.5 47.5q20 0 38.5 -2.5t41.5 -8.5v-31
q-84 0 -137 -38t-53 -89q0 -61 57 -94.5t139 -33.5q97 0 147 29t50 73q0 37 -26 61t-71 41l-214 83q-39 14 -79.5 40.5t-68 66t-27.5 93.5q0 92 76 149t213 57q83 0 148 -28t102.5 -77t37.5 -112q0 -69 -54 -121t-154 -52q-19 0 -36 3.5t-38 8.5v35q68 0 116 33t48 87
q0 53 -47 86t-123 33q-71 0 -120.5 -31t-49.5 -76q0 -35 25 -57.5t70 -39.5l217 -83q84 -32 129 -75.5t45 -118.5q0 -92 -83 -152.5t-233 -60.5z" />
    <glyph glyph-name="threeeighths" unicode="&#x215c;" horiz-adv-x="2206" 
d="M406 574q-79 0 -149 29t-114 85.5t-44 138.5h119q3 -71 56 -109.5t132 -38.5t123.5 38.5t44.5 94.5t-41.5 90t-134.5 34h-94v90h71q80 0 125.5 33t45.5 89q0 51 -38 85.5t-110 34.5q-57 0 -101.5 -23.5t-59.5 -83.5h-118q13 112 89.5 161.5t185.5 49.5q119 0 197 -59
t78 -153q0 -59 -33.5 -102.5t-97.5 -65.5q71 -22 115.5 -69t44.5 -120q0 -100 -79.5 -164.5t-212.5 -64.5zM535.516 -19.374l963.788 1381.51h148.555l-966.085 -1381.51h-146.258zM1787 -26q-140 0 -227 63.5t-87 158.5q0 85 64.5 132.5t163.5 47.5q20 0 38.5 -2.5
t41.5 -8.5v-31q-84 0 -137 -38t-53 -89q0 -61 57 -94.5t139 -33.5q97 0 147 29t50 73q0 37 -26 61t-71 41l-214 83q-39 14 -79.5 40.5t-68 66t-27.5 93.5q0 92 76 149t213 57q83 0 148 -28t102.5 -77t37.5 -112q0 -69 -54 -121t-154 -52q-19 0 -36 3.5t-38 8.5v35
q68 0 116 33t48 87q0 53 -47 86t-123 33q-71 0 -120.5 -31t-49.5 -76q0 -35 25 -57.5t70 -39.5l217 -83q84 -32 129 -75.5t45 -118.5q0 -92 -83 -152.5t-233 -60.5z" />
    <glyph glyph-name="fiveeighths" unicode="&#x215d;" horiz-adv-x="2171" 
d="M396 574q-76 0 -138 27.5t-97.5 80.5t-37.5 128h115q0 -65 46 -98t112 -33q75 0 119.5 47t44.5 115q0 135 -177 135h-217l34 381h440v-104h-348l23 36l-24 -251l-12 12q29 7 67 10t66 3q122 0 194 -56.5t72 -165.5q0 -75 -34.5 -135.5t-98 -96t-149.5 -35.5z
M500.516 -19.374l963.788 1381.51h148.555l-966.085 -1381.51h-146.258zM1752 -26q-140 0 -227 63.5t-87 158.5q0 85 64.5 132.5t163.5 47.5q20 0 38.5 -2.5t41.5 -8.5v-31q-84 0 -137 -38t-53 -89q0 -61 57 -94.5t139 -33.5q97 0 147 29t50 73q0 37 -26 61t-71 41l-214 83
q-39 14 -79.5 40.5t-68 66t-27.5 93.5q0 92 76 149t213 57q83 0 148 -28t102.5 -77t37.5 -112q0 -69 -54 -121t-154 -52q-19 0 -36 3.5t-38 8.5v35q68 0 116 33t48 87q0 53 -47 86t-123 33q-71 0 -120.5 -31t-49.5 -76q0 -35 25 -57.5t70 -39.5l217 -83q84 -32 129 -75.5
t45 -118.5q0 -92 -83 -152.5t-233 -60.5z" />
    <glyph glyph-name="seveneighths" unicode="&#x215e;" horiz-adv-x="2007" 
d="M82 600l361 657h-395v111h530v-108l-342 -660h-154zM336.516 -19.374l963.788 1381.51h148.555l-966.085 -1381.51h-146.258zM1588 -26q-140 0 -227 63.5t-87 158.5q0 85 64.5 132.5t163.5 47.5q20 0 38.5 -2.5t41.5 -8.5v-31q-84 0 -137 -38t-53 -89q0 -61 57 -94.5
t139 -33.5q97 0 147 29t50 73q0 37 -26 61t-71 41l-214 83q-39 14 -79.5 40.5t-68 66t-27.5 93.5q0 92 76 149t213 57q83 0 148 -28t102.5 -77t37.5 -112q0 -69 -54 -121t-154 -52q-19 0 -36 3.5t-38 8.5v35q68 0 116 33t48 87q0 53 -47 86t-123 33q-71 0 -120.5 -31
t-49.5 -76q0 -35 25 -57.5t70 -39.5l217 -83q84 -32 129 -75.5t45 -118.5q0 -92 -83 -152.5t-233 -60.5z" />
    <glyph glyph-name="partialdiff" unicode="&#x2202;" horiz-adv-x="1112" 
d="M548 -26q-118 0 -217.5 63.5t-159.5 178.5t-60 271q0 152 57.5 264.5t152 174.5t206.5 62t197 -61t133 -166.5t48 -242.5h-65q-2 103 -42.5 169.5t-101.5 98.5t-126 32q-75 0 -135 -40.5t-95.5 -115.5t-35.5 -179q0 -102 35.5 -178t96 -117.5t137.5 -41.5
q83 0 139.5 46.5t88.5 126.5t37 179q6 159 -15.5 303.5t-75 273.5t-141 241.5t-213.5 206.5l153 111q116 -98 205.5 -217t149.5 -251t91.5 -269.5t31.5 -271.5q0 -153 -37.5 -274t-103 -204.5t-151.5 -128t-184 -44.5z" />
    <glyph glyph-name="emptyset" unicode="&#x2205;" 
d="M601 153q-113 0 -205.5 55t-147.5 147.5t-55 204.5t55 204t147.5 147t205.5 55t205 -55t147 -147t55 -204t-55 -204.5t-147 -147.5t-205 -55zM601 273q79 0 143.5 39t103.5 104t39 144t-39 143.5t-103.5 103.5t-143.5 39t-144 -39t-104 -103.5t-39 -143.5t39 -144
t104 -104t144 -39zM1008 1041l73 -75l-888 -889l-74 74z" />
    <glyph glyph-name="product" unicode="&#x220f;" horiz-adv-x="1314" 
d="M195 -472v1746h923v-1746h-190v1638l53 -56h-650l53 56v-1638h-189z" />
    <glyph glyph-name="summation" unicode="&#x2211;" horiz-adv-x="1119" 
d="M562 401l-463 709v164h922v-164h-862l101 56l509 -765h-207zM562 401h207l-509 -765l-101 55h862v-163h-922v163z" />
    <glyph glyph-name="minus" unicode="&#x2212;" horiz-adv-x="1068" 
d="M36 577h997v-165h-997v165z" />
    <glyph glyph-name="DivisionSlash" unicode="&#x2215;" horiz-adv-x="556" 
d="M-276.484 -19.374l963.788 1381.51h148.555l-966.085 -1381.51h-146.258z" />
    <glyph glyph-name="radical" unicode="&#x221a;" horiz-adv-x="1179" 
d="M466 1l-205 468l67 -72l-271 -72l-47 112l396 135l191 -443h-78l486 1554h164l-549 -1682h-154z" />
    <glyph glyph-name="infinity" unicode="&#x221e;" horiz-adv-x="1353" 
d="M366 191q-77 0 -150 32.5t-120 100.5t-47 174t47 174t120 100.5t150 32.5q58 0 120.5 -21t117.5 -71t92 -138h-40q37 88 92 138t118 71t121 21q77 0 149.5 -32.5t119.5 -100.5t47 -174t-47 -174t-119.5 -100.5t-149.5 -32.5q-58 0 -120.5 20.5t-117.5 70.5t-92 138h40
q-37 -88 -92.5 -138t-118 -70.5t-120.5 -20.5zM394 315q80 0 148.5 52.5t116.5 164.5v-68q-48 112 -116.5 164.5t-148.5 52.5q-47 0 -92 -19t-74.5 -59.5t-29.5 -104.5t29.5 -104.5t74.5 -59.5t92 -19zM958 315q47 0 92.5 19t74.5 59.5t29 104.5t-29 104.5t-74.5 59.5
t-92.5 19q-79 0 -148 -52.5t-117 -164.5v68q48 -112 117 -164.5t148 -52.5z" />
    <glyph glyph-name="integral" unicode="&#x222b;" horiz-adv-x="961" 
d="M49 -414l47 148q27 -9 55 -15t54 -6q31 0 60.5 11.5t51 41.5t24.5 85l87 1246q7 100 49.5 162.5t109 92.5t144.5 30q44 0 90 -6t90 -18l-47 -148q-27 10 -55 16t-54 6q-31 0 -60.5 -11.5t-50.5 -41.5t-25 -85l-87 -1246q-6 -99 -49.5 -162.5t-110 -93.5t-143.5 -30
q-43 0 -89.5 6.5t-90.5 17.5z" />
    <glyph glyph-name="approxequal" unicode="&#x2248;" horiz-adv-x="1076" 
d="M222 505l-99 52q35 116 89.5 177t137.5 61q37 0 81.5 -13t116.5 -41q71 -27 108 -39.5t66 -12.5q42 0 74 25.5t59 83.5l98 -61q-36 -111 -97 -166t-139 -55q-37 0 -80.5 13.5t-116.5 40.5q-39 16 -71 27t-58 17.5t-45 6.5q-38 0 -68.5 -26.5t-55.5 -89.5zM222 143l-99 52
q35 117 89.5 177.5t137.5 60.5q37 0 81.5 -13t116.5 -41q71 -27 108 -39.5t66 -12.5q42 0 74 25.5t59 84.5l98 -63q-36 -111 -97.5 -165.5t-138.5 -54.5q-37 0 -80.5 13t-116.5 40q-39 16 -71 27.5t-58 18t-45 6.5q-38 0 -68.5 -26t-55.5 -90z" />
    <glyph glyph-name="notequal" unicode="&#x2260;" horiz-adv-x="991" 
d="M158 380h674v-164h-674v164zM158 779h674v-165h-674v165zM276 83l310 847h128l-309 -847h-129z" />
    <glyph glyph-name="lessequal" unicode="&#x2264;" horiz-adv-x="991" 
d="M802 272l-644 250v143l644 251l43 -151l-581 -206v68l581 -202zM148 0v145h675v-145h-675z" />
    <glyph glyph-name="greaterequal" unicode="&#x2265;" horiz-adv-x="991" 
d="M190 272l-44 153l580 202v-68l-580 206l44 151l642 -251v-143zM168 0v145h674v-145h-674z" />
    <glyph glyph-name="lozenge" unicode="&#x25ca;" horiz-adv-x="1088" 
d="M99 637l371 637h151l370 -637l-370 -637h-151zM289 601v72l279 -501h-45l278 501v-72l-278 501h45z" />
    <glyph glyph-name="approxequal.tf" 
d="M284 505l-99 52q35 116 89.5 177t137.5 61q37 0 81.5 -13t116.5 -41q71 -27 108 -39.5t66 -12.5q42 0 74 25.5t59 83.5l98 -61q-36 -111 -97 -166t-139 -55q-37 0 -80.5 13.5t-116.5 40.5q-39 16 -71 27t-58 17.5t-45 6.5q-38 0 -68.5 -26.5t-55.5 -89.5zM284 143l-99 52
q35 117 89.5 177.5t137.5 60.5q37 0 81.5 -13t116.5 -41q71 -27 108 -39.5t66 -12.5q42 0 74 25.5t59 84.5l98 -63q-36 -111 -97.5 -165.5t-138.5 -54.5q-37 0 -80.5 13t-116.5 40q-39 16 -71 27.5t-58 18t-45 6.5q-38 0 -68.5 -26t-55.5 -90z" />
    <glyph glyph-name="asciicircum.tf" 
d="M154 467l371 720h152l369 -720h-212l-269 570h72l-271 -570h-212z" />
    <glyph glyph-name="asciitilde.tf" 
d="M273 430l-103 55q33 117 90.5 182t141.5 65q39 0 85 -13.5t122 -42.5q78 -31 117.5 -42t67.5 -11q38 0 72 28t58 84l103 -65q-37 -117 -101 -173t-147 -56q-31 0 -78.5 13t-121.5 43q-76 31 -113.5 41.5t-67.5 10.5q-35 0 -66.5 -26.5t-58.5 -92.5z" />
    <glyph glyph-name="cent.tf" 
d="M543 -212v240h160v-240h-160zM543 941v215h160v-215h-160zM626 -26q-118 0 -220 63t-164 177t-62 268q0 162 62 274.5t164 172t220 59.5q87 0 155 -27.5t117 -74t79.5 -104.5t42.5 -120l-193 -10q-21 75 -73.5 120.5t-129.5 45.5q-65 0 -122.5 -36.5t-93 -111
t-35.5 -188.5q0 -106 33 -181t90 -115t128 -40q102 0 152.5 49.5t50.5 136.5h193q0 -101 -47 -182t-135.5 -128.5t-211.5 -47.5z" />
    <glyph glyph-name="currency.tf" 
d="M600 222q-114 0 -208 56t-150 150t-56 208t56 208t150 149.5t208 55.5t207.5 -55.5t149 -149.5t55.5 -208t-55.5 -208t-149 -150t-207.5 -56zM600 395q66 0 120.5 32.5t87.5 87.5t33 121q0 68 -33 122t-87.5 86t-120.5 32t-121 -32t-87.5 -86t-32.5 -122q0 -66 32.5 -121
t87.5 -87.5t121 -32.5zM855 803l-89 89l211 209l88 -87zM336 811l-201 201l86 89l202 -201zM864 461l201 -201l-86 -90l-202 202zM336 461l87 -89l-202 -202l-86 90z" />
    <glyph glyph-name="divide.tf" 
d="M233 449v166h732v-166h-732zM598 114q-50 0 -83.5 32.5t-33.5 78.5q0 48 33.5 80.5t83.5 32.5q51 0 85 -32.5t34 -80.5q0 -46 -34 -78.5t-85 -32.5zM598 722q-50 0 -83.5 31.5t-33.5 80.5q0 46 33.5 78.5t83.5 32.5q51 0 85 -32.5t34 -78.5q0 -49 -34 -80.5t-85 -31.5z
" />
    <glyph glyph-name="dollar.tf" 
d="M606 -26q-99 0 -191 26t-164 77t-114 129t-42 183h187q0 -84 43 -137t117.5 -78t170.5 -25q92 0 153.5 26.5t93 70.5t31.5 96q0 67 -42 116.5t-116 72.5l-135 48v167l220 -75q136 -45 210.5 -125.5t74.5 -208.5q0 -91 -54.5 -174t-164 -136t-278.5 -53zM540 -191v1636
h143v-1636h-143zM592 577l-121 41q-163 56 -250.5 131t-87.5 208q0 151 124.5 245.5t358.5 94.5q204 0 317 -95t136 -255h-187q-12 82 -83 134t-186 52q-133 0 -203.5 -51.5t-70.5 -130.5q0 -62 37 -100.5t114 -63.5l102 -40v-170z" />
    <glyph glyph-name="eight.dnom" horiz-adv-x="839" 
d="M419 -26q-140 0 -227 63.5t-87 158.5q0 85 64.5 132.5t163.5 47.5q20 0 38.5 -2.5t41.5 -8.5v-31q-84 0 -137 -38t-53 -89q0 -61 57 -94.5t139 -33.5q97 0 147 29t50 73q0 37 -26 61t-71 41l-214 83q-39 14 -79.5 40.5t-68 66t-27.5 93.5q0 92 76 149t213 57
q83 0 148 -28t102.5 -77t37.5 -112q0 -69 -54 -121t-154 -52q-19 0 -36 3.5t-38 8.5v35q68 0 116 33t48 87q0 53 -47 86t-123 33q-71 0 -120.5 -31t-49.5 -76q0 -35 25 -57.5t70 -39.5l217 -83q84 -32 129 -75.5t45 -118.5q0 -92 -83 -152.5t-233 -60.5z" />
    <glyph glyph-name="eight.numr" horiz-adv-x="839" 
d="M419 574q-140 0 -227 63.5t-87 158.5q0 85 64.5 132.5t163.5 47.5q20 0 38.5 -2.5t41.5 -8.5v-31q-84 0 -137 -38t-53 -89q0 -61 57 -94.5t139 -33.5q97 0 147 29t50 73q0 37 -26 61t-71 41l-214 83q-39 14 -79.5 40.5t-68 66t-27.5 93.5q0 92 76 149t213 57
q83 0 148 -28t102.5 -77t37.5 -112q0 -69 -54 -121t-154 -52q-19 0 -36 3.5t-38 8.5v35q68 0 116 33t48 87q0 53 -47 86t-123 33q-71 0 -120.5 -31t-49.5 -76q0 -35 25 -57.5t70 -39.5l217 -83q84 -32 129 -75.5t45 -118.5q0 -92 -83 -152.5t-233 -60.5z" />
    <glyph glyph-name="eight.tf" 
d="M598 -26q-156 0 -273.5 48t-183.5 132t-66 189q0 94 50 160.5t135.5 102.5t193.5 36q35 0 65.5 -4.5t68.5 -14.5v-51q-93 0 -163.5 -29.5t-111 -77.5t-40.5 -105q0 -67 43 -114.5t117 -72t165 -24.5q160 0 244 47t84 122q0 60 -43.5 100.5t-117.5 68.5l-358 137
q-64 24 -131 67.5t-112.5 109.5t-45.5 155q0 102 57 179t164.5 119.5t258.5 42.5q137 0 245 -46.5t171 -127t63 -184.5q0 -76 -40 -141.5t-117.5 -105.5t-189.5 -40q-32 0 -59.5 4.5t-61.5 15.5v58q74 0 135.5 24.5t98 69.5t36.5 104q0 58 -35.5 102.5t-99 69.5t-146.5 25
q-80 0 -144 -23.5t-101 -63.5t-37 -89q0 -60 40.5 -97t114.5 -64l363 -139q140 -54 214.5 -125.5t74.5 -196.5q0 -103 -62 -183t-179.5 -125t-283.5 -45z" />
    <glyph glyph-name="equal.tf" 
d="M262 380h676v-164h-676v164zM262 779h676v-165h-676v165z" />
    <glyph glyph-name="Euro.tf" 
d="M673 -26q-166 0 -286.5 83t-185.5 233t-65 352q0 215 70.5 360.5t189.5 220t264 74.5q202 0 319.5 -104.5t155.5 -271.5l-204 -39q-32 111 -103.5 177.5t-167.5 66.5q-81 0 -154 -53t-119.5 -162.5t-46.5 -277.5q0 -143 34.5 -252.5t105.5 -171t180 -61.5q86 0 148 33.5
t95 94.5t33 141h205q0 -140 -60 -238.5t-166 -151.5t-242 -53zM44 477v113h657v-113h-657zM44 686v114h657v-114h-657z" />
    <glyph glyph-name="five.dnom" horiz-adv-x="777" 
d="M396 -26q-76 0 -138 27.5t-97.5 80.5t-37.5 128h115q0 -65 46 -98t112 -33q75 0 119.5 47t44.5 115q0 135 -177 135h-217l34 381h440v-104h-348l23 36l-24 -251l-12 12q29 7 67 10t66 3q122 0 194 -56.5t72 -165.5q0 -75 -34.5 -135.5t-98 -96t-149.5 -35.5z" />
    <glyph glyph-name="five.numr" horiz-adv-x="777" 
d="M396 574q-76 0 -138 27.5t-97.5 80.5t-37.5 128h115q0 -65 46 -98t112 -33q75 0 119.5 47t44.5 115q0 135 -177 135h-217l34 381h440v-104h-348l23 36l-24 -251l-12 12q29 7 67 10t66 3q122 0 194 -56.5t72 -165.5q0 -75 -34.5 -135.5t-98 -96t-149.5 -35.5z" />
    <glyph glyph-name="five.tf" 
d="M588 -26q-127 0 -229 45.5t-162.5 133t-62.5 213.5h193q0 -108 75.5 -162.5t185.5 -54.5q124 0 198.5 77.5t74.5 190.5q0 110 -74.5 167t-219.5 57h-362l58 633h730v-174h-578l38 60l-41 -415l-20 19q48 11 111.5 16t111.5 5q203 0 322.5 -93.5t119.5 -274.5
q0 -125 -57.5 -225.5t-163 -159t-248.5 -58.5z" />
    <glyph glyph-name="four.dnom" horiz-adv-x="726" 
d="M447 777h108v-500h134v-98h-134v-179h-112v179h-394v88zM447 602l-261 -335h261v335z" />
    <glyph glyph-name="four.numr" horiz-adv-x="726" 
d="M447 1377h108v-500h134v-98h-134v-179h-112v179h-394v88zM447 1202l-261 -335h261v335z" />
    <glyph glyph-name="four.tf" 
d="M723 1290h180v-877l-38 30h242v-145h-240l36 47v-345h-186v345l58 -47h-703v145zM724 1099l66 -9l-539 -695l-6 48h536l-57 -49v705z" />
    <glyph glyph-name="greater.tf" 
d="M339 70l-124 147l632 447v-79l-632 451l124 145l646 -472v-169z" />
    <glyph glyph-name="greaterequal.tf" 
d="M294 272l-44 153l580 202v-68l-580 206l44 151l642 -251v-143zM272 0v145h674v-145h-674z" />
    <glyph glyph-name="i.loclTRK" horiz-adv-x="622" 
d="M210 0v965h190v-965h-190zM180.963 1275.89q0 54.9443 37.7734 93.208q37.7744 38.2646 95.6611 38.2646q57.8877 0 98.1143 -38.2646q40.2266 -38.2637 40.2266 -93.208q0 -53.9629 -40.2266 -90.7559q-40.2266 -36.792 -98.1143 -36.792q-57.8867 0 -95.6611 37.2832
q-37.7734 37.2832 -37.7734 90.2646z" />
    <glyph glyph-name="less.tf" 
d="M859 1181l126 -145l-634 -451v79l634 -447l-126 -147l-646 470v169z" />
    <glyph glyph-name="lessequal.tf" 
d="M906 272l-644 250v143l644 251l43 -151l-581 -206v68l581 -202zM252 0v145h675v-145h-675z" />
    <glyph glyph-name="minus.tf" 
d="M97 573h1006v-165h-1006v165z" />
    <glyph glyph-name="multiply.tf" 
d="M325 101l-133 135l274 275l-274 272l133 134l275 -273l274 273l134 -134l-275 -272l275 -275l-134 -135l-274 274z" />
    <glyph glyph-name="nine.dnom" horiz-adv-x="801" 
d="M396 -26q-76 0 -137.5 31.5t-96.5 86t-35 125.5h119q2 -63 42 -100.5t105 -37.5q104 0 149 87.5t45 233.5q0 21 -1 40t-5 42q-14 -99 -74 -144.5t-144 -45.5q-104 0 -173 67.5t-69 172.5q0 109 74 174.5t193 65.5q90 0 161 -48t112 -134.5t41 -202.5q0 -189 -75 -301
t-231 -112zM388 389q63 0 106.5 39.5t43.5 98.5q0 65 -43.5 102.5t-106.5 37.5t-105.5 -37.5t-42.5 -102.5t42.5 -101.5t105.5 -36.5z" />
    <glyph glyph-name="nine.numr" horiz-adv-x="801" 
d="M396 574q-76 0 -137.5 31.5t-96.5 86t-35 125.5h119q2 -63 42 -100.5t105 -37.5q104 0 149 87.5t45 233.5q0 21 -1 40t-5 42q-14 -99 -74 -144.5t-144 -45.5q-104 0 -173 67.5t-69 172.5q0 109 74 174.5t193 65.5q90 0 161 -48t112 -134.5t41 -202.5q0 -189 -75 -301
t-231 -112zM388 989q63 0 106.5 39.5t43.5 98.5q0 65 -43.5 102.5t-106.5 37.5t-105.5 -37.5t-42.5 -102.5t42.5 -101.5t105.5 -36.5z" />
    <glyph glyph-name="nine.tf" 
d="M574 -26q-129 0 -230 51.5t-159.5 142.5t-58.5 209h198q3 -104 69.5 -166t174.5 -62q115 0 185.5 65.5t103 185.5t32.5 281q0 35 -2 66.5t-7 68.5q-15 -109 -65.5 -178.5t-126.5 -103t-168 -33.5q-116 0 -207 51t-143.5 141.5t-52.5 207.5q0 120 56 209t155.5 138
t229.5 49q112 0 208 -45t167 -129t110.5 -201t39.5 -262q0 -210 -55.5 -364t-168.5 -238t-285 -84zM561 663q69 0 125.5 30t89 81.5t32.5 117.5q0 108 -72 170t-178 62q-104 0 -174.5 -62t-70.5 -170q0 -107 71 -168t177 -61z" />
    <glyph glyph-name="notequal.tf" 
d="M262 380h674v-164h-674v164zM262 779h674v-165h-674v165zM380 83l310 847h128l-309 -847h-129z" />
    <glyph glyph-name="one.dnom" horiz-adv-x="526" 
d="M241 771h88v-771h-114v635q-30 -18 -61.5 -27.5t-62.5 -9.5v111q39 4 76.5 19t73.5 43z" />
    <glyph glyph-name="one.numr" horiz-adv-x="526" 
d="M241 1371h88v-771h-114v635q-30 -18 -61.5 -27.5t-62.5 -9.5v111q39 4 76.5 19t73.5 43z" />
    <glyph glyph-name="one.tf" 
d="M255 0v150h300l-47 -47v1017l56 -32q-64 -45 -130.5 -69t-131.5 -27v184q64 8 126 32.5t120 70.5h150v-1176l-49 47h302v-150h-696z" />
    <glyph glyph-name="percent.tf" 
d="M89 0l839 1274h185l-840 -1274h-184zM922 -26q-63 0 -120.5 30t-93.5 95t-36 170q0 106 36 170t93.5 93.5t120.5 29.5q64 0 122 -29.5t94 -93.5t36 -170q0 -105 -36 -170t-94 -95t-122 -30zM922 101q49 0 82 38.5t33 129.5t-33 130.5t-82 39.5q-51 0 -84 -39.5
t-33 -130.5t33 -129.5t84 -38.5zM276 711q-63 0 -120.5 29.5t-93.5 94t-36 170.5q0 104 36 169t93.5 94t120.5 29q64 0 122 -29t94.5 -94t36.5 -169q0 -106 -36.5 -170.5t-94.5 -94t-122 -29.5zM276 836q50 0 83.5 39t33.5 130t-33.5 130t-83.5 39t-82.5 -39t-32.5 -130
t32.5 -130t82.5 -39z" />
    <glyph glyph-name="plus.tf" 
d="M505 982h190v-409h404v-164h-404v-409h-190v409h-402v164h402v409z" />
    <glyph glyph-name="plusminus.tf" 
d="M523 1070h152v-320h296v-126h-296v-320h-152v320h-296v126h296v320zM252 145h696v-145h-696v145z" />
    <glyph glyph-name="uni20A8.tf" 
d="M164 1162v112h871v-112h-871zM164 851v113h871v-113h-871zM164 607h148l648 -607h-266l-530 493v114zM228 607h65q179 0 261.5 80t82.5 199t-82.5 197.5t-261.5 78.5h-65v81h65q184 0 305.5 -46t182 -126.5t60.5 -184.5q0 -110 -54 -199t-174.5 -141.5t-319.5 -52.5h-65
v114z" />
    <glyph glyph-name="seven.dnom" horiz-adv-x="613" 
d="M82 0l361 657h-395v111h530v-108l-342 -660h-154z" />
    <glyph glyph-name="seven.numr" horiz-adv-x="613" 
d="M82 600l361 657h-395v111h530v-108l-342 -660h-154z" />
    <glyph glyph-name="seven.tf" 
d="M153 1274h880v-179l-568 -1095h-255l598 1092h-655v182z" />
    <glyph glyph-name="six.dnom" horiz-adv-x="789" 
d="M413 -26q-94 0 -164.5 50.5t-110 137.5t-39.5 198q0 195 87.5 303.5t237.5 108.5q107 0 175.5 -59.5t75.5 -155.5h-123q-8 51 -38 81t-87 30q-99 0 -156 -86.5t-57 -235.5q0 -20 1 -45.5t4 -48.5q8 77 40 121.5t79 63.5t99 19q106 0 175.5 -68t69.5 -174
q0 -107 -74.5 -173.5t-194.5 -66.5zM413 79q64 0 106.5 38t42.5 101q0 66 -42.5 103t-106.5 37q-62 0 -105.5 -39.5t-43.5 -100.5q0 -63 43.5 -101t105.5 -38z" />
    <glyph glyph-name="six.numr" horiz-adv-x="789" 
d="M413 574q-94 0 -164.5 50.5t-110 137.5t-39.5 198q0 195 87.5 303.5t237.5 108.5q107 0 175.5 -59.5t75.5 -155.5h-123q-8 51 -38 81t-87 30q-99 0 -156 -86.5t-57 -235.5q0 -20 1 -45.5t4 -48.5q8 77 40 121.5t79 63.5t99 19q106 0 175.5 -68t69.5 -174
q0 -107 -74.5 -173.5t-194.5 -66.5zM413 679q64 0 106.5 38t42.5 101q0 66 -42.5 103t-106.5 37q-62 0 -105.5 -39.5t-43.5 -100.5q0 -63 43.5 -101t105.5 -38z" />
    <glyph glyph-name="six.tf" 
d="M622 -26q-157 0 -274.5 84t-182.5 228.5t-65 328.5q0 216 66 368.5t187 233t286 80.5q119 0 210 -44.5t144.5 -124.5t61.5 -187h-203q-13 85 -63 134.5t-145 49.5q-164 0 -257.5 -143t-93.5 -390q0 -34 2 -77t5 -80q12 129 65.5 202.5t131.5 104.5t165 31q117 0 208 -51
t144 -141.5t53 -207.5q0 -119 -56.5 -209t-156.5 -140t-232 -50zM622 149q105 0 176.5 62.5t71.5 167.5q0 109 -72 170.5t-177 61.5q-69 0 -125 -29.5t-89 -82t-33 -120.5q0 -105 72 -167.5t176 -62.5z" />
    <glyph glyph-name="sterling.tf" 
d="M135 113v55q76 0 108.5 44t32.5 134v528q0 136 45 230.5t131 143.5t209 49q152 0 244.5 -80.5t116.5 -240.5h-187q-11 75 -59 112t-115 37q-88 0 -141.5 -60.5t-53.5 -190.5v-517q0 -127 -70 -185.5t-261 -58.5zM75 0v168h644q99 0 143.5 40.5t55.5 123.5h205
q-8 -155 -97.5 -243.5t-304.5 -88.5h-646zM103 546v130h716v-130h-716z" />
    <glyph glyph-name="three.dnom" horiz-adv-x="812" 
d="M406 -26q-79 0 -149 29t-114 85.5t-44 138.5h119q3 -71 56 -109.5t132 -38.5t123.5 38.5t44.5 94.5t-41.5 90t-134.5 34h-94v90h71q80 0 125.5 33t45.5 89q0 51 -38 85.5t-110 34.5q-57 0 -101.5 -23.5t-59.5 -83.5h-118q13 112 89.5 161.5t185.5 49.5q119 0 197 -59
t78 -153q0 -59 -33.5 -102.5t-97.5 -65.5q71 -22 115.5 -69t44.5 -120q0 -100 -79.5 -164.5t-212.5 -64.5z" />
    <glyph glyph-name="three.numr" horiz-adv-x="812" 
d="M406 574q-79 0 -149 29t-114 85.5t-44 138.5h119q3 -71 56 -109.5t132 -38.5t123.5 38.5t44.5 94.5t-41.5 90t-134.5 34h-94v90h71q80 0 125.5 33t45.5 89q0 51 -38 85.5t-110 34.5q-57 0 -101.5 -23.5t-59.5 -83.5h-118q13 112 89.5 161.5t185.5 49.5q119 0 197 -59
t78 -153q0 -59 -33.5 -102.5t-97.5 -65.5q71 -22 115.5 -69t44.5 -120q0 -100 -79.5 -164.5t-212.5 -64.5z" />
    <glyph glyph-name="three.tf" 
d="M607 -26q-98 0 -190 27.5t-164 80t-114 131t-42 181.5h199q3 -78 44 -133t110 -83.5t157 -28.5q131 0 205 63t74 158q0 61 -30.5 107t-95 71.5t-167.5 25.5h-156v150h119q131 0 207 54.5t76 148.5q0 84 -63 141t-183 57q-95 0 -169 -38.5t-96 -137.5h-200
q15 124 78.5 201t161.5 112t220 35q131 0 233.5 -44.5t162.5 -123.5t60 -182q0 -99 -56 -170.5t-162 -109.5q119 -36 192 -114.5t73 -198.5q0 -111 -59.5 -197t-168 -134.5t-256.5 -48.5z" />
    <glyph glyph-name="two.dnom" horiz-adv-x="809" 
d="M125 0v121q0 98 46 151.5t130 85.5l153 61q56 22 83 56.5t27 85.5q0 52 -37 86t-104 34q-66 0 -108.5 -30t-49.5 -88h-127q3 72 40 120.5t99.5 73.5t144.5 25q75 0 135.5 -28.5t95.5 -80t35 -118.5q0 -89 -48 -145.5t-140 -92.5l-156 -62q-54 -20 -79.5 -47.5
t-25.5 -71.5v-31h443v-105h-557z" />
    <glyph glyph-name="two.numr" horiz-adv-x="809" 
d="M125 600v121q0 98 46 151.5t130 85.5l153 61q56 22 83 56.5t27 85.5q0 52 -37 86t-104 34q-66 0 -108.5 -30t-49.5 -88h-127q3 72 40 120.5t99.5 73.5t144.5 25q75 0 135.5 -28.5t95.5 -80t35 -118.5q0 -89 -48 -145.5t-140 -92.5l-156 -62q-54 -20 -79.5 -47.5
t-25.5 -71.5v-31h443v-105h-557z" />
    <glyph glyph-name="two.tf" 
d="M135 0v201q0 109 33.5 183.5t99 124t157.5 86.5l255 100q93 37 138.5 94t45.5 141q0 87 -61.5 144t-173.5 57q-109 0 -180.5 -49.5t-81.5 -147.5h-210q4 119 65 200t165 122t239 41q126 0 226 -48t158.5 -133t58.5 -196q0 -99 -36.5 -172.5t-105.5 -128t-169 -93.5
l-261 -103q-89 -35 -130.5 -80t-41.5 -118v-50h733v-175h-923z" />
    <glyph glyph-name="yen.tf" 
d="M499 0v525l-436 749h226l328 -588h-41l335 588h226l-446 -749v-525h-192zM254 188v113h686v-113h-686zM254 393v113h686v-113h-686z" />
    <glyph glyph-name="zero.dnom" horiz-adv-x="813" 
d="M407 -26q-138 0 -223 99.5t-85 299.5q0 202 85 300.5t223 98.5q137 0 223 -98.5t86 -300.5q0 -200 -86 -299.5t-223 -99.5zM407 79q92 0 141 76.5t49 217.5q0 142 -49 218.5t-141 76.5t-141 -76.5t-49 -218.5q0 -141 49 -217.5t141 -76.5z" />
    <glyph glyph-name="zero.numr" horiz-adv-x="813" 
d="M407 574q-138 0 -223 99.5t-85 299.5q0 202 85 300.5t223 98.5q137 0 223 -98.5t86 -300.5q0 -200 -86 -299.5t-223 -99.5zM407 679q92 0 141 76.5t49 217.5q0 142 -49 218.5t-141 76.5t-141 -76.5t-49 -218.5q0 -141 49 -217.5t141 -76.5z" />
    <glyph glyph-name="zero.tf" 
d="M600 -26q-153 0 -268 73t-179 220t-64 370q0 222 64 369t179 219t268 72q152 0 267 -72t179.5 -219t64.5 -369q0 -223 -64.5 -370t-179.5 -220t-267 -73zM600 149q153 0 234 126.5t81 361.5q0 234 -81 361t-234 127q-151 0 -233 -127t-82 -361q0 -235 82 -361.5
t233 -126.5z" />
    </font>
</defs>
</svg>
