<?xml version="1.0" standalone="no"?>
<!DOCTYPE svg PUBLIC "-//W3C//DTD SVG 1.1//EN" "http://www.w3.org/Graphics/SVG/1.1/DTD/svg11.dtd" >
<svg xmlns="http://www.w3.org/2000/svg" xmlns:xlink="http://www.w3.org/1999/xlink" version="1.1">
<metadata>
Created by FontForge 20170731 at Wed Oct 28 20:58:09 2020
 By Aleksey,,,
Copyright 2019 The Karla Project Authors (https://github.com/googlefonts/karla)
</metadata>
<defs>
<font id="Karla-Light" horiz-adv-x="1200" >
  <font-face 
    font-family="Karla Light"
    font-weight="300"
    font-stretch="normal"
    units-per-em="2000"
    panose-1="2 11 0 4 3 5 3 3 0 3"
    ascent="1600"
    descent="-400"
    x-height="949"
    cap-height="1235"
    bbox="-254.812 -487 2146 1925"
    underline-thickness="50"
    underline-position="-175"
    unicode-range="U+000D-FB02"
  />
<missing-glyph horiz-adv-x="1031" 
d="M10 1645h1011v-1640h-1011v1640zM0 1655v-1660h1031v1660h-1031zM1021 5q-91 151 -179.5 308t-180.5 319.5t-192 330t-213.5 338.5t-245.5 344q139 -228 269 -443.5t254.5 -419.5t246 -398.5t241.5 -378.5zM10 5q120 184 241.5 378.5t246 398.5t254.5 419.5t269 443.5
q-132 -173 -245.5 -344t-213.5 -338.5t-192 -330t-180.5 -319.5t-179.5 -308z" />
    <glyph glyph-name="fi" unicode="fi" horiz-adv-x="1227" 
d="M260 0v1112q0 90 34 148t93 85.5t133 27.5q37 0 75 -5.5t76 -18.5l-22 -95q-32 13 -63 19.5t-59 6.5q-34 0 -69 -13t-59 -49t-24 -107v-1111h-115zM98 865v84h485v-84h-485zM933 1199q-37 0 -60 23t-23 58q0 34 23 54.5t60 20.5q39 0 61 -20.5t22 -54.5q0 -35 -22 -58
t-61 -23zM875 0v950h116v-950h-116z" />
    <glyph glyph-name="fl" unicode="fl" horiz-adv-x="1196" 
d="M260 0v1112q0 90 34 148t93 85.5t133 27.5q37 0 75 -5.5t76 -18.5l-22 -95q-32 13 -63 19.5t-59 6.5q-34 0 -69 -13t-59 -49t-24 -107v-1111h-115zM98 865v84h485v-84h-485zM870 0v1360h116v-1360h-116z" />
    <glyph glyph-name=".notdef" horiz-adv-x="1031" 
d="M10 1645h1011v-1640h-1011v1640zM0 1655v-1660h1031v1660h-1031zM1021 5q-91 151 -179.5 308t-180.5 319.5t-192 330t-213.5 338.5t-245.5 344q139 -228 269 -443.5t254.5 -419.5t246 -398.5t241.5 -378.5zM10 5q120 184 241.5 378.5t246 398.5t254.5 419.5t269 443.5
q-132 -173 -245.5 -344t-213.5 -338.5t-192 -330t-180.5 -319.5t-179.5 -308z" />
    <glyph glyph-name=".null" 
 />
    <glyph glyph-name="nonmarkingreturn" horiz-adv-x="666" 
 />
    <glyph glyph-name="CR" unicode="&#xd;" 
 />
    <glyph glyph-name="space" unicode=" " horiz-adv-x="459" 
 />
    <glyph glyph-name="exclam" unicode="!" horiz-adv-x="539" 
d="M228 309l-17 906h121l-16 -906h-88zM271 -18q-40 0 -66.5 26t-26.5 63t26.5 64.5t66.5 27.5t67.5 -27.5t27.5 -64.5t-27.5 -63t-67.5 -26z" />
    <glyph glyph-name="quotedbl" unicode="&#x22;" horiz-adv-x="531" 
d="M370 938l-15 422h122l-17 -422h-90zM70 938l-15 422h122l-17 -422h-90z" />
    <glyph glyph-name="numbersign" unicode="#" horiz-adv-x="1198" 
d="M279 60l31 286h-208l8 82h207l40 379h-207l7 82h210l28 281h108l-28 -281h326l31 281h106l-29 -281h213l-10 -82h-212l-38 -379h212l-10 -82h-212l-31 -286h-108l31 286h-326l-31 -286h-108zM425 428h326l40 379h-326z" />
    <glyph glyph-name="dollar" unicode="$" horiz-adv-x="1202" 
d="M603 -22q-94 0 -177.5 25t-147 74t-100 120.5t-36.5 163.5h112q0 -94 46.5 -155t126.5 -90.5t179 -29.5q106 0 178.5 34t109.5 89t37 116q0 84 -52.5 140t-150.5 86l-121 39v108l166 -51q130 -41 209.5 -118t79.5 -207q0 -85 -51 -163.5t-153 -129.5t-255 -51zM552 -172
v1571h99v-1571h-99zM586 592l-80 26q-164 53 -246.5 123t-82.5 196q0 140 108.5 229t315.5 89q185 0 288.5 -82.5t124.5 -214.5h-117q-15 92 -91 143t-206 51q-146 0 -222.5 -62t-76.5 -158q0 -77 45 -122.5t146 -76.5l94 -32v-109z" />
    <glyph glyph-name="percent" unicode="%" horiz-adv-x="1412" 
d="M227 0l829 1235h124l-830 -1235h-123zM1039 -19q-63 0 -119 32t-91 94.5t-35 153.5q0 90 35 151.5t91 93.5t119 32q66 0 123 -32t91.5 -93.5t34.5 -151.5q0 -91 -34.5 -153.5t-91.5 -94.5t-123 -32zM1039 67q66 0 107.5 47t41.5 147q0 97 -41.5 145t-107.5 48
q-65 0 -106 -48t-41 -145q0 -100 41 -147t106 -47zM367 700q-63 0 -119 32t-91 93.5t-35 151.5t35 152.5t91 94t119 31.5q65 0 122 -31.5t92 -94t35 -152.5t-35 -151.5t-92 -93.5t-122 -32zM367 784q64 0 105 47.5t41 145.5t-41 147.5t-105 49.5q-66 0 -106.5 -49.5
t-40.5 -147.5t40.5 -145.5t106.5 -47.5z" />
    <glyph glyph-name="ampersand" unicode="&#x26;" horiz-adv-x="1778" 
d="M1443 -22q-66 0 -123.5 27.5t-125.5 87.5l-667 580q-76 66 -117.5 141.5t-41.5 156.5q0 83 45 147t126.5 100t191.5 36q101 0 178.5 -36.5t121.5 -99.5t44 -143q0 -72 -33.5 -135t-109.5 -120.5t-205 -113.5l-67 65q123 56 184.5 106.5t82 99t20.5 98.5q0 78 -59.5 130.5
t-156.5 52.5q-119 0 -178.5 -61.5t-59.5 -141.5q0 -58 27.5 -112t93.5 -111l671 -584q43 -36 74.5 -51.5t77.5 -15.5q52 0 92.5 39t48.5 133h115q-8 -132 -71 -203.5t-179 -71.5zM645 -22q-103 0 -189 27.5t-149 77t-97.5 114.5t-34.5 140q0 152 120 227.5t354 95.5l19 -74
q-187 -20 -277.5 -79t-90.5 -168q0 -70 39.5 -128.5t117 -94t190.5 -35.5q127 0 231.5 53.5t189 146.5t148 214t107.5 257l86 -46q-47 -148 -116 -280t-162.5 -232.5t-214 -158t-271.5 -57.5z" />
    <glyph glyph-name="quotesingle" unicode="'" horiz-adv-x="227" 
d="M53 1354h122l-17 -422h-90z" />
    <glyph glyph-name="parenleft" unicode="(" horiz-adv-x="667" 
d="M531 1427l83 -55q-114 -114 -190.5 -241t-115 -260.5t-38.5 -267.5q0 -201 87 -399.5t257 -368.5l-83 -59q-185 173 -285 389t-100 438q0 224 100 438.5t285 385.5z" />
    <glyph glyph-name="parenright" unicode=")" horiz-adv-x="667" 
d="M137 -224l-85 59q171 170 258.5 368.5t87.5 399.5q0 134 -39 267.5t-116 260.5t-191 241l85 55q184 -171 284.5 -385.5t100.5 -438.5q0 -148 -45 -294.5t-131.5 -282t-208.5 -250.5z" />
    <glyph glyph-name="asterisk" unicode="*" horiz-adv-x="828" 
d="M174 834l184 183l-240 86l42 89l219 -109l-15 265h100l-15 -265l219 110l42 -91l-239 -83l184 -185l-76 -66l-163 211l-164 -211z" />
    <glyph glyph-name="plus" unicode="+" horiz-adv-x="1037" 
d="M462 982h113v-442h426v-98h-426v-442h-113v442h-426v98h426v442z" />
    <glyph glyph-name="comma" unicode="," horiz-adv-x="374" 
d="M156 -191l-90 43q52 26 86 57.5t44 80.5q-37 2 -63 23.5t-26 57.5q0 33 24 57.5t63 24.5q48 0 80 -36t32 -88q0 -61 -36.5 -121t-113.5 -99z" />
    <glyph glyph-name="hyphen" unicode="-" horiz-adv-x="671" 
d="M68 521v101h535v-101h-535z" />
    <glyph glyph-name="period" unicode="." horiz-adv-x="320" 
d="M66 71q0 36 26.5 64t65.5 28q40 0 68 -28t28 -64q0 -37 -28 -63t-68 -26q-39 0 -65.5 26t-26.5 63z" />
    <glyph glyph-name="slash" unicode="/" horiz-adv-x="823" 
d="M118 -136l496 1584h119l-500 -1584h-115z" />
    <glyph glyph-name="zero" unicode="0" horiz-adv-x="1148" 
d="M574 -22q-142 0 -247 71t-163 213.5t-58 355.5t58 354.5t163 212t247 70.5t247 -70.5t163.5 -212t58.5 -354.5t-58.5 -355.5t-163.5 -213.5t-247 -71zM574 86q173 0 260.5 139.5t87.5 392.5t-87.5 392t-260.5 139q-170 0 -258.5 -139t-88.5 -392t88.5 -392.5
t258.5 -139.5z" />
    <glyph glyph-name="one" unicode="1" horiz-adv-x="635" 
d="M324 1237h100v-1237h-116v1102q-46 -38 -99.5 -57.5t-106.5 -22.5v115q61 10 118 34t104 66z" />
    <glyph glyph-name="two" unicode="2" horiz-adv-x="1134" 
d="M132 0v168q0 109 36.5 180.5t101 117.5t146.5 79l239 96q101 42 152 107t51 165q0 106 -72.5 172t-200.5 66q-129 0 -209.5 -52t-91.5 -156h-130q9 97 62.5 167t146 107.5t221.5 37.5q116 0 207 -45.5t143 -125t52 -181.5q0 -95 -36 -165t-98.5 -120t-142.5 -83
l-247 -101q-105 -41 -159.5 -100.5t-54.5 -154.5v-71h724v-108h-840z" />
    <glyph glyph-name="three" unicode="3" horiz-adv-x="1149" 
d="M578 -22q-90 0 -173.5 25.5t-149 75.5t-103.5 123.5t-38 169.5h116q1 -95 48.5 -158.5t126 -95.5t173.5 -32q149 0 230 74t81 184q0 70 -34 124.5t-109 86.5t-200 32h-127v93h71q162 0 255.5 62.5t93.5 173.5q0 97 -74 165t-207 68q-100 0 -178 -40.5t-109 -152.5h-116
q17 109 74 174.5t142 95t186 29.5q117 0 209 -42.5t145 -118t53 -171.5q0 -99 -57.5 -168t-165.5 -108q120 -31 197.5 -108.5t77.5 -201.5q0 -104 -52.5 -185t-150.5 -127.5t-235 -46.5z" />
    <glyph glyph-name="four" unicode="4" horiz-adv-x="1080" 
d="M711 1255h105v-843h214v-97h-214v-315h-114v315h-646v91zM705 1061l-510 -655h510v655z" />
    <glyph glyph-name="five" unicode="5" horiz-adv-x="1111" 
d="M549 -22q-108 0 -202 40.5t-151.5 119t-57.5 193.5h114q0 -120 86.5 -182.5t210.5 -62.5q148 0 229.5 88.5t81.5 218.5q0 263 -334 263h-306l51 579h655v-105h-561l25 47l-44 -464l-20 16q48 11 106.5 15t106.5 4q205 0 324 -88t119 -267q0 -118 -52 -212t-149.5 -148.5
t-231.5 -54.5z" />
    <glyph glyph-name="six" unicode="6" horiz-adv-x="1110" 
d="M581 -22q-145 0 -251.5 82t-165 222t-58.5 314q0 205 59.5 353t172 227t270.5 79q104 0 182.5 -40t127.5 -111t61 -165h-129q-17 96 -74 153t-166 57q-181 0 -283 -155t-102 -424q0 -41 2 -96t9 -102q5 138 57 217.5t131.5 113t169.5 33.5q110 0 199 -48.5t141.5 -134.5
t52.5 -199q0 -112 -51.5 -197t-142.5 -132t-212 -47zM581 86q124 0 203 72.5t79 196.5q0 127 -79 199t-203 72q-81 0 -144.5 -36t-100 -97t-36.5 -138q0 -124 79.5 -196.5t201.5 -72.5z" />
    <glyph glyph-name="seven" unicode="7" horiz-adv-x="911" 
d="M133 0l606 1127h-691v108h828v-103l-590 -1132h-153z" />
    <glyph glyph-name="eight" unicode="8" horiz-adv-x="1197" 
d="M598 -22q-138 0 -247.5 46t-172 126t-62.5 182q0 97 49.5 166.5t137 106.5t199.5 37q22 0 44.5 -1.5t45.5 -6.5v-40q-107 0 -187 -36.5t-124 -94.5t-44 -125q0 -82 47 -138t129 -85t185 -29q165 0 262.5 58t97.5 152q0 77 -53 125.5t-145 80.5l-334 127q-61 23 -123 63
t-104 100t-42 142q0 91 53 164t152 115t236 42q129 0 227 -44t153 -120t55 -172q0 -80 -38.5 -147.5t-114.5 -108.5t-189 -41q-22 0 -42.5 2t-44.5 9v41q89 0 158.5 30.5t109.5 85t40 125.5q0 67 -39.5 120t-110 83.5t-164.5 30.5q-91 0 -162.5 -30t-113 -79.5t-41.5 -109.5
q0 -76 51.5 -120.5t140.5 -77.5l328 -124q136 -50 208.5 -120.5t72.5 -188.5q0 -94 -57.5 -166.5t-165.5 -113.5t-261 -41z" />
    <glyph glyph-name="nine" unicode="9" horiz-adv-x="1130" 
d="M555 -22q-119 0 -210.5 50.5t-143 138.5t-51.5 199h120q2 -128 76 -204t207 -76q123 0 199.5 71t113 201t36.5 308q0 44 -2 80t-9 83q-10 -107 -57 -180.5t-124 -111.5t-177 -38q-107 0 -195 49.5t-140.5 136t-52.5 197.5q0 114 50.5 197.5t142 129.5t212.5 46
q104 0 191 -42.5t150 -123t98 -193t35 -253.5q0 -204 -49.5 -353t-153 -230.5t-266.5 -81.5zM549 609q81 0 145 36.5t101 97.5t37 136q0 125 -81 198t-201 73q-125 0 -204.5 -73t-79.5 -198t79.5 -197.5t203.5 -72.5z" />
    <glyph glyph-name="colon" unicode=":" horiz-adv-x="422" 
d="M117 153q0 36 26.5 64t65.5 28q40 0 68 -28t28 -64q0 -37 -28 -63t-68 -26q-39 0 -65.5 26t-26.5 63zM117 773q0 36 26.5 64t65.5 28q40 0 68 -28t28 -64q0 -37 -28 -63t-68 -26q-39 0 -65.5 26t-26.5 63z" />
    <glyph glyph-name="semicolon" unicode=";" horiz-adv-x="475" 
d="M207 -191l-90 43q52 26 86 57.5t44 80.5q-37 2 -63 23.5t-26 57.5q0 33 24 57.5t63 24.5q48 0 80 -36t32 -88q0 -61 -36.5 -121t-113.5 -99zM161 773q0 36 26.5 64t65.5 28q40 0 68 -28t28 -64q0 -37 -28 -63t-68 -26q-39 0 -65.5 26t-26.5 63z" />
    <glyph glyph-name="less" unicode="&#x3c;" horiz-adv-x="857" 
d="M689 1096l75 -90l-606 -436v46l606 -431l-75 -93l-611 452v98z" />
    <glyph glyph-name="equal" unicode="=" horiz-adv-x="956" 
d="M158 354h639v-99h-639v99zM158 720h639v-102h-639v102z" />
    <glyph glyph-name="greater" unicode="&#x3e;" horiz-adv-x="857" 
d="M171 92l-75 93l601 431v-46l-601 436l75 90l611 -454v-98z" />
    <glyph glyph-name="question" unicode="?" horiz-adv-x="978" 
d="M356 286v95q0 87 17.5 143.5t60.5 98.5t119 85q69 38 111.5 70.5t62 72.5t19.5 98q0 85 -70 142.5t-192 57.5q-132 0 -201.5 -49.5t-90.5 -141.5h-126q15 131 119.5 214t297.5 83q121 0 208 -43t133.5 -113.5t46.5 -154.5q0 -102 -52 -170.5t-170 -133.5
q-68 -39 -107.5 -71.5t-56 -76t-16.5 -115.5v-91h-113zM414 -22q-39 0 -65.5 26.5t-26.5 62.5q0 37 26 65t65 28t68 -27.5t29 -64.5q0 -36 -29 -63t-67 -27z" />
    <glyph glyph-name="at" unicode="@" horiz-adv-x="1789" 
d="M1063 -323q-210 0 -381 57.5t-293.5 163t-188.5 250t-66 317.5q0 168 61 311.5t172.5 251t263 167.5t333.5 60q168 0 304 -51.5t232.5 -142.5t148 -211.5t51.5 -258.5q0 -114 -33.5 -208t-91 -163t-129.5 -106t-150 -37t-126.5 38.5t-53.5 108.5l-3 29
q-34 -71 -95 -123.5t-159 -52.5q-81 0 -152.5 40.5t-116 117t-44.5 183.5q0 93 34.5 174.5t95 143t137 95.5t159.5 34q112 0 178.5 -68.5t66.5 -207.5v-325q0 -53 19 -79t61 -26q63 0 128 53t109.5 150.5t44.5 230.5q0 163 -75 289.5t-211.5 199t-323.5 72.5
q-163 0 -294.5 -55.5t-225 -153t-144 -224.5t-50.5 -271q0 -202 99 -355.5t280.5 -239t428.5 -85.5v-93zM871 171q84 0 140 52.5t102 145.5v221q0 92 -32 137.5t-103 45.5t-144.5 -43.5t-122.5 -123.5t-49 -191q0 -117 59 -180.5t150 -63.5z" />
    <glyph glyph-name="A" unicode="A" horiz-adv-x="1098" 
d="M56 0l427 1235h137l421 -1235h-122l-114 343h-509l-119 -343h-121zM326 437h447l-224 654z" />
    <glyph glyph-name="B" unicode="B" horiz-adv-x="1217" 
d="M210 0v1235h443q132 0 219 -45t130 -118t43 -157q0 -107 -59 -187.5t-181 -107.5q79 -10 138 -54t91.5 -105.5t32.5 -127.5q0 -65 -21.5 -125t-70 -106.5t-128 -74t-195.5 -27.5h-442zM326 101h326q158 0 225.5 67t67.5 170q0 104 -75 167t-218 63h-326v-467zM326 1136
v-470h323q123 0 200 63t77 180q0 108 -74.5 167.5t-200.5 59.5h-325z" />
    <glyph glyph-name="C" unicode="C" horiz-adv-x="1206" 
d="M628 -22q-163 0 -280 84.5t-179.5 231t-62.5 334.5q0 204 69.5 343.5t188 211.5t264.5 72q189 0 308.5 -96t170.5 -249l-126 -28q-42 125 -136.5 197.5t-216.5 72.5q-105 0 -195.5 -59.5t-146 -176.5t-55.5 -288q0 -153 42.5 -276.5t130.5 -196t224 -72.5q160 0 256.5 86
t96.5 229h129q0 -130 -62 -224t-171 -145t-249 -51z" />
    <glyph glyph-name="D" unicode="D" horiz-adv-x="1294" 
d="M210 1235h342q186 0 321.5 -76.5t209.5 -215t74 -325.5q0 -185 -74 -324t-209.5 -216.5t-321.5 -77.5h-342v1235zM326 1135v-1037h226q150 0 258 68t166.5 185.5t58.5 266.5q0 150 -58.5 266.5t-166.5 183.5t-258 67h-226z" />
    <glyph glyph-name="E" unicode="E" horiz-adv-x="1100" 
d="M208 0v1235h744v-99h-628v-462h592v-99h-592v-474h628v-101h-744z" />
    <glyph glyph-name="F" unicode="F" horiz-adv-x="1026" 
d="M210 0v1235h737v-99h-621v-456h583v-100h-583v-580h-116z" />
    <glyph glyph-name="G" unicode="G" horiz-adv-x="1255" 
d="M636 -22q-145 0 -266 75t-192.5 214.5t-71.5 332.5q0 165 47 288t128.5 204.5t185.5 122t217 40.5q130 0 234 -51.5t189 -162.5l-101 -50q-76 83 -157 120.5t-168 37.5q-121 0 -224.5 -66t-166 -189t-62.5 -294q0 -148 49.5 -264t142 -183t221.5 -67q95 0 170.5 44
t119 136t43.5 236h46q0 -159 -38 -277t-122.5 -182.5t-223.5 -64.5zM999 0l-25 301v203l-328 12v84h443v-600h-90z" />
    <glyph glyph-name="H" unicode="H" horiz-adv-x="1300" 
d="M210 1235h116v-560h650v560h113v-1235h-113v577h-650v-577h-116v1235z" />
    <glyph glyph-name="I" unicode="I" horiz-adv-x="536" 
d="M210 0v1235h116v-1235h-116z" />
    <glyph glyph-name="J" unicode="J" horiz-adv-x="767" 
d="M8 66v125q66 -46 134.5 -73t136.5 -27q115 0 162 68t47 185v891h115v-891q0 -127 -38 -208t-109.5 -119.5t-171.5 -38.5q-77 0 -144.5 25t-131.5 63z" />
    <glyph glyph-name="K" unicode="K" horiz-adv-x="1169" 
d="M918 1235h162l-775 -801v169zM522 708l591 -708h-154l-523 632zM210 1235h118v-1235h-118v1235z" />
    <glyph glyph-name="L" unicode="L" horiz-adv-x="909" 
d="M326 1235v-1134h573v-101h-689v1235h116z" />
    <glyph glyph-name="M" unicode="M" horiz-adv-x="1667" 
d="M210 1235h167l465 -905h-14l465 905h164v-1235h-118v1128h24l-488 -962h-79l-486 955h16v-1121h-116v1235z" />
    <glyph glyph-name="N" unicode="N" horiz-adv-x="1335" 
d="M209 1235h150l662 -1088h-12v1088h116v-1235h-141l-676 1111h17v-1111h-116v1235z" />
    <glyph glyph-name="O" unicode="O" horiz-adv-x="1254" 
d="M628 -22q-148 0 -266 70t-187 211.5t-69 354.5q0 216 69 358.5t187 212.5t266 70q147 0 265 -70.5t187 -213t69 -357.5t-69 -356t-187 -210.5t-265 -69.5zM628 87q186 0 293 133.5t107 395.5q0 258 -107 396.5t-293 138.5q-185 0 -293 -139t-108 -398q0 -261 108 -394
t293 -133z" />
    <glyph glyph-name="P" unicode="P" horiz-adv-x="1080" 
d="M207 0v1235h377q201 0 304 -103t103 -272q0 -167 -103 -268.5t-304 -101.5h-259v-490h-118zM325 591h259q141 0 214.5 71.5t73.5 197.5q0 128 -73.5 202t-214.5 74h-259v-545z" />
    <glyph glyph-name="Q" unicode="Q" horiz-adv-x="1268" 
d="M628 -22q-148 0 -266 70t-187 211.5t-69 354.5q0 216 69 358.5t187 212.5t266 70q147 0 265 -70.5t187 -213t69 -357.5t-69 -356t-187 -210.5t-265 -69.5zM993 -321q-83 0 -147.5 41.5t-122.5 124.5l-128 178l116 22l116 -159q35 -46 69.5 -65.5t66.5 -21.5q54 0 98.5 15
t95.5 40v-136q-44 -19 -84.5 -29t-79.5 -10zM628 87q186 0 293 133.5t107 395.5q0 258 -107 396.5t-293 138.5q-185 0 -293 -139t-108 -398q0 -261 108 -394t293 -133z" />
    <glyph glyph-name="R" unicode="R" horiz-adv-x="1194" 
d="M210 0v1235h417q206 0 309.5 -99.5t103.5 -259.5q0 -159 -103.5 -258.5t-309.5 -99.5h-301v-518h-116zM915 0l-368 551h129l388 -551h-149zM326 604h295q147 0 223.5 74.5t76.5 193.5q0 122 -75.5 193t-218.5 71h-301v-532z" />
    <glyph glyph-name="S" unicode="S" horiz-adv-x="1176" 
d="M587 -22q-121 0 -222 44.5t-162 130t-61 208.5h112q0 -94 46 -155t121.5 -90.5t163.5 -29.5q101 0 173 33.5t110.5 87.5t38.5 115q0 88 -53.5 143.5t-154.5 86.5l-205 66q-159 55 -239 124t-80 195q0 140 106 229t305 89q179 0 281.5 -82t118.5 -215h-115
q-16 92 -87.5 141.5t-197.5 49.5q-136 0 -210.5 -61.5t-74.5 -156.5q0 -77 47 -121.5t148 -78.5l248 -80q130 -40 209.5 -118.5t79.5 -208.5q0 -91 -51 -170t-150 -127.5t-245 -48.5z" />
    <glyph glyph-name="T" unicode="T" horiz-adv-x="970" 
d="M12 1136v99h947v-99h-443l26 27v-1163h-116v1163l26 -27h-440z" />
    <glyph glyph-name="U" unicode="U" horiz-adv-x="1269" 
d="M178 1235h116v-799q0 -185 93 -267.5t245 -82.5q150 0 242.5 82.5t92.5 267.5v799h116v-799q0 -155 -56.5 -256.5t-158 -151.5t-236.5 -50t-237.5 50t-159.5 151.5t-57 256.5v799z" />
    <glyph glyph-name="V" unicode="V" horiz-adv-x="1085" 
d="M533 120l392 1115h125l-449 -1235h-119l-446 1235h124l391 -1115h-18z" />
    <glyph glyph-name="W" unicode="W" horiz-adv-x="1735" 
d="M32 1235h132l332 -1132h-39l346 980h79l334 -976h-39l396 1128h128l-443 -1235h-122l-308 895h34l-323 -895h-122z" />
    <glyph glyph-name="X" unicode="X" horiz-adv-x="1241" 
d="M113 0l434 613l-439 622h137l379 -534l356 534h142l-435 -621l437 -614h-140l-375 522l-357 -522h-139z" />
    <glyph glyph-name="Y" unicode="Y" horiz-adv-x="1059" 
d="M20 1235h142l385 -636h-37l388 636h140l-450 -729v-506h-119v506z" />
    <glyph glyph-name="Z" unicode="Z" horiz-adv-x="1146" 
d="M146 0v108l778 1058v-44l-778 8v105h892v-109l-765 -1037l-15 24l780 -8v-105h-892z" />
    <glyph glyph-name="bracketleft" unicode="[" horiz-adv-x="596" 
d="M210 -162v1562h344v-100h-228v-1362h228v-100h-344z" />
    <glyph glyph-name="backslash" unicode="\" horiz-adv-x="823" 
d="M94 1448l496 -1584h119l-500 1584h-115z" />
    <glyph glyph-name="bracketright" unicode="]" horiz-adv-x="516" 
d="M306 -162v1562h-344v-100h228v-1362h-228v-100h344z" />
    <glyph glyph-name="asciicircum" unicode="^" horiz-adv-x="811" 
d="M43 517l327 638h88l327 -638h-131l-261 539h42l-258 -539h-134z" />
    <glyph glyph-name="underscore" unicode="_" horiz-adv-x="1406" 
d="M110 0v101h1189v-101h-1189z" />
    <glyph glyph-name="grave" unicode="`" horiz-adv-x="612" 
d="M448 1129l-342 319l85 70l317 -341z" />
    <glyph glyph-name="a" unicode="a" horiz-adv-x="1066" 
d="M789 0l-15 197v420q0 143 -62 203t-177 60q-64 0 -119 -18.5t-88 -59t-33 -106.5h-132q0 101 50 161.5t134.5 87t187.5 26.5q102 0 182 -35.5t126.5 -114t46.5 -206.5v-615h-101zM459 -22q-114 0 -188 41.5t-110 106.5t-36 134q0 100 48.5 160t130 87t178.5 27
q73 0 151.5 -16.5t150.5 -45.5v-78q-62 27 -143 43t-147 16q-102 0 -174 -44t-72 -149q0 -79 53.5 -134t172.5 -55q81 0 149 39t109.5 97t41.5 117h29q0 -91 -42.5 -170t-120 -127.5t-181.5 -48.5z" />
    <glyph glyph-name="b" unicode="b" horiz-adv-x="1164" 
d="M619 -22q-98 0 -176.5 49.5t-124.5 143.5t-46 226h54q0 -103 41.5 -173.5t106.5 -106.5t138 -36q81 0 150 47t111 136t42 214q0 124 -42 211t-111 134t-152 47q-73 0 -138 -36t-105.5 -106.5t-40.5 -175.5h-54q0 131 45.5 224.5t125 144t182.5 50.5q111 0 204.5 -59.5
t150 -170t56.5 -263.5t-57 -265t-152 -173.5t-208 -61.5zM210 0v1360h116v-1144l-28 -216h-88z" />
    <glyph glyph-name="c" unicode="c" horiz-adv-x="1018" 
d="M530 -22q-111 0 -208 61t-156.5 173t-59.5 265q0 155 59.5 265.5t156.5 169.5t208 59q74 0 134.5 -21.5t107 -60t79.5 -89t51 -108.5l-121 -18q-29 92 -95 144t-158 52q-78 0 -146.5 -45t-111.5 -132.5t-43 -215.5q0 -116 38.5 -205.5t106.5 -140t156 -50.5q121 0 187 60
t66 169h121q0 -98 -47 -173t-131 -117t-194 -42z" />
    <glyph glyph-name="d" unicode="d" horiz-adv-x="1164" 
d="M544 -22q-113 0 -208.5 61.5t-152.5 173.5t-57 265t56.5 263.5t150 170t204.5 59.5q103 0 183 -50.5t125 -144t45 -224.5h-53q0 105 -40.5 175.5t-105.5 106.5t-139 36q-81 0 -150.5 -47t-112 -134t-42.5 -211q0 -125 42 -214t112 -136t152 -47q70 0 135 36t107 106.5
t42 173.5h53q0 -132 -45.5 -226t-124 -143.5t-176.5 -49.5zM854 0l-17 216v1144h115v-1360h-98z" />
    <glyph glyph-name="e" unicode="e" horiz-adv-x="1010" 
d="M527 -22q-124 0 -218.5 63.5t-148.5 175t-54 254.5q0 156 53.5 268t148 172t219.5 60q105 0 178.5 -42.5t118.5 -115.5t63.5 -165t14.5 -190h-701v80h630l-46 -30q3 65 -7.5 129.5t-39 118.5t-79.5 87t-131 33q-102 0 -170 -52.5t-101.5 -136t-33.5 -178.5v-49
q0 -109 33.5 -196t101 -138t169.5 -51q105 0 171.5 51.5t79.5 151.5h124q-15 -95 -66.5 -162t-130.5 -102.5t-178 -35.5z" />
    <glyph glyph-name="f" unicode="f" horiz-adv-x="660" 
d="M260 0v1112q0 90 34 148t93 85.5t133 27.5q37 0 75 -5.5t76 -18.5l-22 -95q-32 13 -63 19.5t-59 6.5q-34 0 -69 -13t-59 -49t-24 -107v-1111h-115zM98 865v84h485v-84h-485z" />
    <glyph glyph-name="g" unicode="g" horiz-adv-x="1111" 
d="M530 -487q-137 0 -240 39.5t-160.5 106.5t-57.5 149q0 115 84.5 174.5t221.5 59.5l43 -49q-113 0 -175 -49t-62 -133q0 -83 86.5 -143t259.5 -60q130 0 228.5 36.5t154 96t55.5 128.5q0 50 -37.5 87t-114.5 37h-395q-97 0 -162 28t-98.5 74t-33.5 98q0 60 33.5 100.5
t86.5 61.5t111 21l15 -48q-31 0 -63 -14.5t-54.5 -43t-22.5 -72.5q0 -49 40 -83t148 -34h395q126 0 197.5 -57t71.5 -151q0 -88 -66 -171t-190 -136t-299 -53zM566 270q-108 0 -192.5 44.5t-133.5 124t-49 182.5q0 104 49 183t133.5 123t192.5 44q105 0 188.5 -44
t132.5 -123t49 -183q0 -103 -49 -182.5t-132.5 -124t-188.5 -44.5zM565 356q119 0 187.5 75.5t68.5 189.5q0 115 -68.5 188t-186.5 73q-119 0 -188.5 -73t-69.5 -188q0 -114 69.5 -189.5t187.5 -75.5zM865 821l-57 14q0 83 29.5 145.5t87 97.5t142.5 35l-12 -118
q-92 0 -141 -42.5t-49 -131.5z" />
    <glyph glyph-name="h" unicode="h" horiz-adv-x="1187" 
d="M897 0v559q0 151 -72.5 231t-199.5 80q-93 0 -160.5 -51t-103 -143t-35.5 -215h-51q0 156 42.5 270.5t126 177t207.5 62.5q110 0 190.5 -49t124.5 -141.5t44 -221.5v-559h-113zM210 0v1360h116v-1360h-116z" />
    <glyph glyph-name="i" unicode="i" horiz-adv-x="566" 
d="M273 1199q-37 0 -60 23t-23 58q0 34 23 54.5t60 20.5q39 0 61 -20.5t22 -54.5q0 -35 -22 -58t-61 -23zM215 0v950h116v-950h-116z" />
    <glyph glyph-name="j" unicode="j" horiz-adv-x="606" 
d="M312 1199q-38 0 -59 23t-21 58q0 34 21 54.5t59 20.5t60.5 -20.5t22.5 -54.5q0 -35 -22.5 -58t-60.5 -23zM80 -487q-65 0 -129 19t-133 61l10 102q63 -36 119.5 -58.5t119.5 -22.5q89 0 139 60t50 181v1098h113v-1099q0 -181 -81.5 -261t-207.5 -80z" />
    <glyph glyph-name="k" unicode="k" horiz-adv-x="1099" 
d="M210 0v1360h116v-1360h-116zM306 521l524 428h167l-691 -555v127zM874 0l-464 597l125 15l483 -612h-144z" />
    <glyph glyph-name="l" unicode="l" horiz-adv-x="536" 
d="M210 0v1360h116v-1360h-116z" />
    <glyph glyph-name="m" unicode="m" horiz-adv-x="1857" 
d="M1567 0v559q0 151 -72 231t-197 80q-142 0 -215 -107.5t-73 -286.5h-59q0 117 24 209.5t71 156t116.5 96.5t160.5 33q110 0 190.5 -49t124.5 -141.5t44 -221.5v-559h-115zM210 0v949h98l14 -205q43 107 126 167t203 60q110 0 190.5 -49t124.5 -141.5t44 -221.5v-559h-113
v559q0 151 -72.5 231t-199.5 80q-93 0 -160.5 -51t-103 -143t-35.5 -215v-461h-116z" />
    <glyph glyph-name="n" unicode="n" horiz-adv-x="1187" 
d="M897 0v559q0 151 -72.5 231t-199.5 80q-93 0 -160.5 -51t-103 -143t-35.5 -215h-51q0 156 42.5 270.5t126 177t207.5 62.5q110 0 190.5 -49t124.5 -141.5t44 -221.5v-559h-113zM210 0v949h98l18 -234v-715h-116z" />
    <glyph glyph-name="o" unicode="o" horiz-adv-x="1073" 
d="M538 -22q-127 0 -224 57t-152.5 168t-55.5 272t55.5 271.5t152.5 167.5t224 57t224 -57t152 -167.5t55 -271.5t-55 -272t-152 -168t-224 -57zM536 79q105 0 175 49.5t104.5 138.5t34.5 208q0 179 -76.5 288t-233.5 109q-105 0 -174.5 -49.5t-104 -139t-34.5 -208.5
q0 -178 76.5 -287t232.5 -109z" />
    <glyph glyph-name="p" unicode="p" horiz-adv-x="1144" 
d="M618 -22q-104 0 -182.5 49t-122 141t-43.5 221h56q0 -101 40.5 -169.5t105 -103.5t136.5 -35q79 0 149 46t114 134.5t44 215.5q0 125 -42 212.5t-111.5 134t-152.5 46.5q-72 0 -137 -36t-105.5 -105.5t-40.5 -172.5h-56q0 132 45.5 225t124.5 141.5t179 48.5
q111 0 206 -59.5t153 -170t58 -264.5q0 -156 -58.5 -268t-154 -171.5t-205.5 -59.5zM210 -468v1417h98l18 -216v-1201h-116z" />
    <glyph glyph-name="q" unicode="q" horiz-adv-x="1144" 
d="M527 -22q-111 0 -207.5 59.5t-155 171.5t-58.5 268q0 154 58.5 264.5t154.5 170t205 59.5q100 0 179.5 -48.5t125.5 -141.5t46 -225h-58q0 103 -41 172.5t-106 105.5t-137 36q-82 0 -151.5 -46.5t-112 -134t-42.5 -212.5q0 -127 43.5 -215.5t114 -134.5t149.5 -46
q72 0 136.5 34.5t105.5 103t41 170.5h46q0 -124 -41 -216.5t-116.5 -143.5t-178.5 -51zM1038 -487q-123 36 -172 111t-49 214v895l30 216h83v-1117q0 -72 13.5 -114t47 -66.5t91.5 -44.5z" />
    <glyph glyph-name="r" unicode="r" horiz-adv-x="692" 
d="M210 0v950h116v-950h-116zM283 435q0 178 31 296t96 177t166 59q35 0 64.5 -5t59.5 -16l-13 -113q-29 11 -64 18.5t-61 7.5q-89 0 -140.5 -54t-73.5 -149.5t-22 -220.5h-43z" />
    <glyph glyph-name="s" unicode="s" horiz-adv-x="1049" 
d="M545 -22q-138 0 -227.5 40t-134.5 108t-49 152h116q6 -101 81.5 -152.5t206.5 -51.5q68 0 126 22.5t93.5 62t35.5 89.5q0 64 -47 100t-149 62l-173 52q-125 36 -191 102.5t-66 159.5q0 112 97 179.5t253 67.5q170 0 265 -67t100 -167h-120q-11 71 -73 105.5t-172 34.5
q-109 0 -169 -50t-60 -109q0 -114 196 -167l170 -53q128 -36 195.5 -96t67.5 -154q0 -69 -44.5 -131t-127.5 -100.5t-200 -38.5z" />
    <glyph glyph-name="t" unicode="t" horiz-adv-x="733" 
d="M487 -22q-74 0 -131.5 29t-90 86t-32.5 141v985h113v-983q0 -162 150 -162q44 0 84 10t90 28l16 -85q-49 -22 -98 -35.5t-101 -13.5zM70 865v84h597v-84h-597z" />
    <glyph glyph-name="u" unicode="u" horiz-adv-x="1190" 
d="M862 950h116v-950h-116v950zM178 950h116v-596q0 -132 64.5 -201.5t186.5 -69.5q100 0 171 54t108.5 145t37.5 201h55q0 -152 -47 -265t-133 -174.5t-204 -61.5q-110 0 -189.5 41t-122.5 122.5t-43 202.5v602z" />
    <glyph glyph-name="v" unicode="v" horiz-adv-x="988" 
d="M42 949h131l334 -849h-24l334 849h131l-392 -949h-122z" />
    <glyph glyph-name="w" unicode="w" horiz-adv-x="1415" 
d="M42 949h120l261 -829h-18l258 786h88l255 -788h-15l261 831h116l-311 -949h-112l-249 737h18l-248 -737h-111z" />
    <glyph glyph-name="x" unicode="x" horiz-adv-x="981" 
d="M62 0l354 475l-354 475h140l292 -387l283 387h141l-358 -475l355 -475h-141l-290 390l-282 -390h-140z" />
    <glyph glyph-name="y" unicode="y" horiz-adv-x="893" 
d="M47 949h127l339 -848h-33l252 848h120l-354 -1149q-39 -130 -109.5 -208.5t-186.5 -78.5q-60 0 -112 19t-108 54v112q52 -45 101 -64.5t103 -19.5q67 0 109.5 44t70 111t47.5 134l27 97z" />
    <glyph glyph-name="z" unicode="z" horiz-adv-x="929" 
d="M102 0v93l594 762h-594v94h728v-94l-590 -762h590v-93h-728z" />
    <glyph glyph-name="braceleft" unicode="{" horiz-adv-x="653" 
d="M633 -258q-141 0 -224 59t-118.5 160.5t-35.5 230.5v182q0 89 -18 126.5t-57 37.5h-26v109h26q39 0 57 37.5t18 126.5v184q0 130 35.5 232.5t118.5 161t224 58.5v-101q-147 0 -205.5 -92t-58.5 -260v-183q0 -91 -24.5 -142t-65.5 -73v-4q41 -22 65.5 -72.5t24.5 -142.5
v-183q0 -168 58.5 -260t205.5 -92v-100z" />
    <glyph glyph-name="bar" unicode="|" horiz-adv-x="536" 
d="M210 -244v1724h116v-1724h-116z" />
    <glyph glyph-name="braceright" unicode="}" horiz-adv-x="653" 
d="M20 -258q141 0 224 59t118.5 160.5t35.5 230.5v182q0 89 18 126.5t57 37.5h26v109h-26q-39 0 -57 37.5t-18 126.5v184q0 130 -35.5 232.5t-118.5 161t-224 58.5v-101q147 0 205.5 -92t58.5 -260v-183q0 -91 24.5 -142t65.5 -73v-4q-41 -22 -65.5 -72.5t-24.5 -142.5v-183
q0 -168 -58.5 -260t-205.5 -92v-100z" />
    <glyph glyph-name="asciitilde" unicode="~" horiz-adv-x="974" 
d="M168 465l-66 35q33 98 83 145.5t110 47.5q32 0 73 -12.5t119 -43.5q88 -35 124.5 -45t63.5 -10q37 0 72 29t61 87l63 -41q-34 -100 -86 -144t-116 -44q-28 0 -73.5 13t-121.5 43q-84 33 -120 44.5t-64 11.5q-32 0 -63 -25t-59 -91z" />
    <glyph glyph-name="uni00A0" unicode="&#xa0;" horiz-adv-x="459" 
 />
    <glyph glyph-name="exclamdown" unicode="&#xa1;" horiz-adv-x="539" 
d="M228 887l-17 -906h121l-16 906h-88zM271 1214q-40 0 -66.5 -26t-26.5 -63t26.5 -64.5t66.5 -27.5t67.5 27.5t27.5 64.5t-27.5 63t-67.5 26z" />
    <glyph glyph-name="cent" unicode="&#xa2;" horiz-adv-x="1009" 
d="M479 -207v213h104v-213h-104zM479 943v183h104v-183h-104zM530 -22q-111 0 -208 61t-156.5 173t-59.5 265q0 155 59.5 265.5t156.5 169.5t208 59q74 0 134.5 -21.5t107 -60t79.5 -89t51 -108.5l-121 -18q-29 92 -95 144t-158 52q-78 0 -146.5 -45t-111.5 -132.5
t-43 -215.5q0 -116 38.5 -205.5t106.5 -140t156 -50.5q121 0 187 60t66 169h121q0 -98 -47 -173t-131 -117t-194 -42z" />
    <glyph glyph-name="sterling" unicode="&#xa3;" horiz-adv-x="1092" 
d="M90 63v35q79 0 115.5 45t36.5 138v571q0 123 36.5 213.5t113 140t198.5 49.5q127 0 213.5 -69.5t110.5 -205.5h-115q-15 89 -74.5 129t-134.5 40q-110 0 -171 -71.5t-61 -225.5v-567q0 -119 -54.5 -170.5t-213.5 -51.5zM38 0v98h658q94 0 140.5 43t61.5 134h121
q-11 -124 -82 -199.5t-242 -75.5h-657zM52 520v86h678v-86h-678z" />
    <glyph glyph-name="currency" unicode="&#xa4;" 
d="M600 231q-110 0 -200 53.5t-143.5 144.5t-53.5 202q0 108 53.5 197.5t143.5 143t200 53.5t199.5 -53.5t142.5 -143t53 -197.5q0 -111 -53 -202t-142.5 -144.5t-199.5 -53.5zM600 345q77 0 141.5 38.5t103 103t38.5 144.5q0 78 -38.5 141.5t-103 101t-141.5 37.5
q-78 0 -142.5 -37.5t-102.5 -101t-38 -141.5q0 -80 38 -144.5t102.5 -103t142.5 -38.5zM866 827l-70 70l179 176l70 -68zM331 830l-176 173l68 70l176 -173zM869 429l176 -173l-68 -73l-176 176zM331 429l68 -70l-176 -176l-68 73z" />
    <glyph glyph-name="yen" unicode="&#xa5;" horiz-adv-x="1059" 
d="M469 0v506l-449 729h142l385 -636h-37l388 636h140l-450 -729v-506h-119zM196 218v81h665v-81h-665zM196 408v81h665v-81h-665z" />
    <glyph glyph-name="brokenbar" unicode="&#xa6;" horiz-adv-x="536" 
d="M210 690v790h116v-790h-116zM210 -244v790h116v-790h-116z" />
    <glyph glyph-name="section" unicode="&#xa7;" 
d="M644 408q68 0 126 22t94 62.5t36 93.5q0 60 -49.5 95t-147.5 63l-173 51q-125 36 -190.5 103t-65.5 158q0 113 95.5 181t257.5 68q165 0 260.5 -67.5t100.5 -167.5h-120q-9 72 -75 106t-158 34q-124 0 -182 -50.5t-58 -111.5q0 -109 195 -164l170 -52
q128 -38 195.5 -97.5t67.5 -148.5q0 -73 -44.5 -135.5t-127.5 -101t-200 -38.5zM560 788q-108 0 -168.5 -52.5t-60.5 -115.5q0 -110 196 -165l170 -52q128 -38 195 -97.5t67 -149.5q0 -71 -42.5 -134t-128 -101.5t-213.5 -38.5q-127 0 -215 40t-134 108.5t-49 152.5h116
q3 -99 80 -151.5t195 -52.5t193 49.5t75 127.5q0 62 -50.5 97t-146.5 62l-172 51q-127 37 -192 103.5t-65 159.5q0 117 97 185.5t253 68.5v-95z" />
    <glyph glyph-name="dieresis" unicode="&#xa8;" horiz-adv-x="693" 
d="M501 1138q-36 0 -61 23.5t-25 57.5q0 35 25 60.5t61 25.5q37 0 62.5 -25.5t25.5 -60.5q0 -34 -25.5 -57.5t-62.5 -23.5zM192 1138q-37 0 -61.5 23.5t-24.5 56.5q0 36 24.5 60.5t61.5 24.5t62.5 -24.5t25.5 -60.5q0 -33 -25.5 -56.5t-62.5 -23.5z" />
    <glyph glyph-name="copyright" unicode="&#xa9;" horiz-adv-x="1358" 
d="M679 -12q-130 0 -244.5 49t-201.5 136t-136 201t-49 245q0 130 49 244.5t136 201.5t201.5 136t244.5 49t244.5 -49t201.5 -136t136 -201.5t49 -244.5q0 -131 -49 -245t-136 -201t-201.5 -136t-244.5 -49zM679 53q118 0 220 44t180 122t122 180.5t44 219.5t-44 219.5
t-122 180.5t-180 122t-220 44q-116 0 -219 -44t-181 -122t-122 -180.5t-44 -219.5t44 -219.5t122 -180.5t181 -122t219 -44zM676 221q-102 0 -175 52.5t-112 144.5t-39 209q0 127 43.5 214t117.5 132t165 45q117 0 191.5 -59.5t107.5 -155.5l-79 -18q-26 78 -85 123.5
t-135 45.5q-65 0 -122 -37.5t-91.5 -110t-34.5 -179.5q0 -95 26.5 -172.5t81 -123t140.5 -45.5q100 0 160 54t60 143h80q0 -122 -84.5 -192t-215.5 -70z" />
    <glyph glyph-name="ordfeminine" unicode="&#xaa;" horiz-adv-x="1066" 
d="M789 0l-15 197v420q0 143 -62 203t-177 60q-64 0 -119 -18.5t-88 -59t-33 -106.5h-132q0 101 50 161.5t134.5 87t187.5 26.5q102 0 182 -35.5t126.5 -114t46.5 -206.5v-615h-101zM459 -22q-114 0 -188 41.5t-110 106.5t-36 134q0 100 48.5 160t130 87t178.5 27
q73 0 151.5 -16.5t150.5 -45.5v-78q-62 27 -143 43t-147 16q-102 0 -174 -44t-72 -149q0 -79 53.5 -134t172.5 -55q81 0 149 39t109.5 97t41.5 117h29q0 -91 -42.5 -170t-120 -127.5t-181.5 -48.5z" />
    <glyph glyph-name="guillemotleft" unicode="&#xab;" horiz-adv-x="1092" 
d="M216 499l394 402l-97 52l-407 -428l407 -427l97 52l-394 402v-53zM593 499l394 402l-97 52l-407 -428l407 -427l97 52l-394 402v-53z" />
    <glyph glyph-name="logicalnot" unicode="&#xac;" 
d="M234 613h671v-322h-93v271l33 -41h-611v92z" />
    <glyph glyph-name="uni00AD" unicode="&#xad;" 
d="M68 521v101h535v-101h-535z" />
    <glyph glyph-name="registered" unicode="&#xae;" horiz-adv-x="1358" 
d="M679 -12q-130 0 -244.5 49t-201.5 136t-136 201t-49 245q0 130 49 244.5t136 201.5t201.5 136t244.5 49t244.5 -49t201.5 -136t136 -201.5t49 -244.5q0 -131 -49 -245t-136 -201t-201.5 -136t-244.5 -49zM679 53q118 0 220 44t180 122t122 180.5t44 219.5t-44 219.5
t-122 180.5t-180 122t-220 44q-116 0 -219 -44t-181 -122t-122 -180.5t-44 -219.5t44 -219.5t122 -180.5t181 -122t219 -44zM876 260l-217 325h76l229 -325h-88zM460 260v727h246q121 0 182 -58.5t61 -152.5q0 -93 -61 -152t-182 -59h-178v-305h-68zM528 616h175
q86 0 131 43.5t45 114.5q0 72 -44 114t-129 42h-178v-314z" />
    <glyph glyph-name="macron" unicode="&#xaf;" horiz-adv-x="802" 
d="M106 1266h591v-98h-591v98z" />
    <glyph glyph-name="degree" unicode="&#xb0;" horiz-adv-x="633" 
d="M317 948q-69 0 -125.5 33.5t-90.5 90.5t-34 125q0 70 34 126t90.5 90t125.5 34t125 -34t90 -90t34 -125t-34 -126t-90 -90.5t-125 -33.5zM317 1033q68 0 115.5 48.5t47.5 116.5q0 67 -47.5 115t-115.5 48t-116.5 -48t-48.5 -116q0 -67 48.5 -115.5t116.5 -48.5z" />
    <glyph glyph-name="plusminus" unicode="&#xb1;" horiz-adv-x="956" 
d="M426 1026h103v-345h323v-83h-323v-346h-103v346h-323v83h323v345zM143 91h671v-91h-671v91z" />
    <glyph glyph-name="uni00B2" unicode="&#xb2;" horiz-adv-x="794" 
d="M131.52 499v101.206q0 65.6631 21.9873 108.736q21.9883 43.0732 60.8447 70.7842q38.8555 27.7109 88.2539 47.5908l143.978 57.832q60.8447 25.3018 91.5674 64.458q30.7236 39.1572 30.7236 99.3994q0 63.8564 -43.6758 103.615q-43.6748 39.7598 -120.784 39.7598
q-77.7119 0 -126.206 -31.3252q-48.4951 -31.3262 -55.1221 -93.9775h-78.3135q5.42188 58.4346 37.6504 100.604q32.2295 42.1689 87.9531 64.7598t133.436 22.5908q69.8799 0 124.7 -27.4102t86.1455 -75.3018q31.3262 -47.8926 31.3262 -109.339
q0 -57.2295 -21.6875 -99.3984q-21.6865 -42.1699 -59.3379 -72.29q-37.6514 -30.1211 -85.8447 -50.001l-148.797 -60.8438q-63.2539 -24.6992 -96.085 -60.543q-32.832 -35.8438 -32.832 -93.0732v-42.7725h436.149v-65.0605h-506.029z" />
    <glyph glyph-name="uni00B3" unicode="&#xb3;" horiz-adv-x="791" 
d="M393.197 485.747q-54.2178 0 -104.52 15.3613t-89.7598 45.4824q-39.459 30.1211 -62.3506 74.3984q-22.8916 44.2783 -22.8916 102.11h69.8799q0.602539 -57.2305 29.2178 -95.4834q28.6143 -38.2539 75.9043 -57.5312t104.52 -19.2773q89.7598 0 138.556 44.5791
t48.7959 110.845q0 42.1689 -20.4824 75.001t-65.6631 52.1094q-45.1816 19.2773 -120.483 19.2773h-76.5068v56.0244h42.7715q97.5908 0 153.917 37.6514q56.3262 37.6504 56.3262 104.52q0 58.4336 -44.5791 99.3984q-44.5781 40.9639 -124.7 40.9639
q-60.2412 0 -107.23 -24.3975q-46.9883 -24.3984 -65.6631 -91.8691h-69.8799q10.2402 65.6641 44.5781 105.122t85.5439 57.2295q51.2051 17.7715 112.049 17.7715q70.4834 0 125.905 -25.6025q55.4229 -25.6025 87.3506 -71.085q31.9287 -45.4824 31.9287 -103.314
q0 -59.6396 -34.6396 -101.206q-34.6387 -41.5674 -99.7002 -65.0615q72.29 -18.6748 118.978 -65.3623t46.6875 -121.387q0 -62.6514 -31.627 -111.447t-90.6641 -76.8086q-59.0361 -28.0117 -141.567 -28.0117z" />
    <glyph glyph-name="acute" unicode="&#xb4;" horiz-adv-x="612" 
d="M166 1129l-60 48l317 341l85 -70z" />
    <glyph glyph-name="uni00B5" unicode="&#xb5;" horiz-adv-x="1190" 
d="M862 950h116v-950h-116v950zM178 950h116v-596q0 -132 64.5 -201.5t186.5 -69.5q100 0 171 54t108.5 145t37.5 201h55q0 -152 -47 -265t-133 -174.5t-204 -61.5q-110 0 -189.5 41t-122.5 122.5t-43 202.5v602zM178 -410v1360h116v-1360h-116z" />
    <glyph glyph-name="paragraph" unicode="&#xb6;" 
d="M538 490q-201 0 -303.5 101.5t-102.5 269.5t102.5 271t303.5 103h352v-101h-277v-644h-75zM564 -252v1487h95v-1487h-95zM828 -252v1487h94v-1487h-94z" />
    <glyph glyph-name="periodcentered" unicode="&#xb7;" horiz-adv-x="320" 
d="M66 499q0 36 26.5 64t65.5 28q40 0 68 -28t28 -64q0 -37 -28 -63t-68 -26q-39 0 -65.5 26t-26.5 63z" />
    <glyph glyph-name="cedilla" unicode="&#xb8;" horiz-adv-x="622" 
d="M106 -350l24 57q77 -43 139.5 -49t100 15.5t39.5 58.5q3 38 -30 66t-81.5 47t-94.5 29l68 171l82 -5l-65 -163l-39 55q87 -22 148.5 -50.5t93 -66t27.5 -87.5q-4 -57 -48 -90.5t-109 -43.5t-133.5 4t-121.5 52z" />
    <glyph glyph-name="uni00B9" unicode="&#xb9;" horiz-adv-x="507" 
d="M235.184 1237.19h60.2412v-745.189h-69.8799v663.863q-27.7119 -22.8916 -59.9414 -34.6387q-32.2285 -11.7471 -64.1572 -13.5547v69.2783q36.748 6.02441 71.085 20.4824q34.3379 14.458 62.6523 39.7588z" />
    <glyph glyph-name="ordmasculine" unicode="&#xba;" horiz-adv-x="1073" 
d="M538 -22q-127 0 -224 57t-152.5 168t-55.5 272t55.5 271.5t152.5 167.5t224 57t224 -57t152 -167.5t55 -271.5t-55 -272t-152 -168t-224 -57zM536 79q105 0 175 49.5t104.5 138.5t34.5 208q0 179 -76.5 288t-233.5 109q-105 0 -174.5 -49.5t-104 -139t-34.5 -208.5
q0 -178 76.5 -287t232.5 -109z" />
    <glyph glyph-name="guillemotright" unicode="&#xbb;" horiz-adv-x="1092" 
d="M877 499l-394 402l97 52l407 -428l-407 -427l-97 52l394 402v-53zM500 499l-394 402l97 52l407 -428l-407 -427l-97 52l394 402v-53z" />
    <glyph glyph-name="onequarter" unicode="&#xbc;" horiz-adv-x="1735" 
d="M237 1345h59v-745h-70v664q-28 -23 -60 -35t-64 -13v69q36 6 70.5 20t64.5 40zM252.188 -12.6211l940.843 1346.65h91.124l-943.905 -1346.65h-88.0615zM1493 756h63v-508h129v-59h-129v-189h-69v189h-389v56zM1489 639l-306 -394h306v394z" />
    <glyph glyph-name="onehalf" unicode="&#xbd;" horiz-adv-x="1836" 
d="M237 1345h59v-745h-70v664q-28 -23 -60 -35t-64 -13v69q36 6 70.5 20t64.5 40zM252.188 -12.6211l940.843 1346.65h91.124l-943.905 -1346.65h-88.0615zM1174 0v101q0 98 48.5 147.5t122.5 79.5l144 58q61 25 91.5 64.5t30.5 100.5q0 64 -43.5 103.5t-120.5 39.5
q-78 0 -126 -31.5t-55 -94.5h-78q5 59 37 101t88 64.5t134 22.5q70 0 124 -27.5t86 -75t32 -108.5q0 -87 -47 -139.5t-120 -83.5l-149 -61q-63 -24 -96 -60t-33 -93v-43h436v-65h-506z" />
    <glyph glyph-name="threequarters" unicode="&#xbe;" horiz-adv-x="2018" 
d="M393 578q-72 0 -136 27t-103.5 80.5t-39.5 129.5h69q1 -86 63 -129.5t147 -43.5q90 0 139 45t49 111q0 64 -47 105.5t-160 41.5h-76v56h42q98 0 154 37.5t56 104.5q0 59 -44.5 100t-124.5 41q-60 0 -107 -25t-66 -92h-69q15 98 82.5 139.5t159.5 41.5q105 0 175 -56.5
t70 -144.5q0 -59 -35 -100.5t-99 -65.5q72 -19 118.5 -65t46.5 -121q0 -94 -70 -155.5t-194 -61.5zM535.188 -12.6211l940.843 1346.65h91.124l-943.905 -1346.65h-88.0615zM1776 756h63v-508h129v-59h-129v-189h-69v189h-389v56zM1772 639l-306 -394h306v394z" />
    <glyph glyph-name="questiondown" unicode="&#xbf;" horiz-adv-x="978" 
d="M581 906v-95q0 -87 -17.5 -143.5t-60.5 -98.5t-119 -85q-69 -38 -111.5 -70.5t-62 -72.5t-19.5 -98q0 -85 70 -142.5t192 -57.5q132 0 201.5 49.5t90.5 141.5h126q-15 -131 -119.5 -214t-297.5 -83q-121 0 -208 43t-133.5 113.5t-46.5 154.5q0 102 52 170.5t170 133.5
q68 39 107.5 71.5t56 76t16.5 115.5v91h113zM523 1214q39 0 65.5 -26.5t26.5 -62.5q0 -37 -26 -65t-65 -28t-68 27.5t-29 64.5q0 36 29 63t67 27z" />
    <glyph glyph-name="Agrave" unicode="&#xc0;" horiz-adv-x="1098" 
d="M56 0l427 1235h137l421 -1235h-122l-114 343h-509l-119 -343h-121zM326 437h447l-224 654zM699 1416l-342 319l85 70l317 -341z" />
    <glyph glyph-name="Aacute" unicode="&#xc1;" horiz-adv-x="1098" 
d="M56 0l427 1235h137l421 -1235h-122l-114 343h-509l-119 -343h-121zM326 437h447l-224 654zM495 1408l-60 48l317 341l85 -70z" />
    <glyph glyph-name="Acircumflex" unicode="&#xc2;" horiz-adv-x="1098" 
d="M56 0l427 1235h137l421 -1235h-122l-114 343h-509l-119 -343h-121zM326 437h447l-224 654zM325 1359l-72 56l298 314l298 -314l-70 -56l-248 265h40z" />
    <glyph glyph-name="Atilde" unicode="&#xc3;" horiz-adv-x="1098" 
d="M56 0l427 1235h137l421 -1235h-122l-114 343h-509l-119 -343h-121zM326 437h447l-224 654zM302 1392l-49 33q24 90 65.5 135.5t94.5 45.5q24 0 51.5 -9t94.5 -44t90 -44.5t45 -9.5q29 0 57 25.5t49 81.5l52 -36q-16 -58 -40 -98t-53.5 -60t-61.5 -20q-27 0 -59.5 12
t-101.5 47q-59 31 -80.5 39t-42.5 8q-31 0 -59 -23.5t-52 -82.5z" />
    <glyph glyph-name="Adieresis" unicode="&#xc4;" horiz-adv-x="1098" 
d="M56 0l427 1235h137l421 -1235h-122l-114 343h-509l-119 -343h-121zM326 437h447l-224 654zM706 1425q-36 0 -61 23.5t-25 57.5q0 35 25 60.5t61 25.5q37 0 62.5 -25.5t25.5 -60.5q0 -34 -25.5 -57.5t-62.5 -23.5zM397 1425q-37 0 -61.5 23.5t-24.5 56.5q0 36 24.5 60.5
t61.5 24.5t62.5 -24.5t25.5 -60.5q0 -33 -25.5 -56.5t-62.5 -23.5z" />
    <glyph glyph-name="Aring" unicode="&#xc5;" horiz-adv-x="1098" 
d="M56 0l427 1235h137l421 -1235h-122l-114 343h-509l-119 -343h-121zM326 437h447l-224 654zM552 1351q-49 0 -90.5 24.5t-66 66t-24.5 91.5t24.5 91t66 66t91.5 25q49 0 90.5 -25t66 -66t24.5 -91t-24.5 -91.5t-66 -66t-91.5 -24.5zM552 1440q40 0 66.5 27t26.5 66
t-26.5 66t-66.5 27q-38 0 -65 -27t-27 -66t27 -66t65 -27z" />
    <glyph glyph-name="AE" unicode="&#xc6;" horiz-adv-x="1638" 
d="M1491 1235v-99h-623l23 22v-531l-23 37h586v-99h-586l23 30v-542l-23 49h623v-102h-716v377l24 -34h-470l59 28l-144 -371h-120l482 1235h885zM799 437l-24 -37v757l24 -21h-148l50 37l-296 -759l-24 23h418z" />
    <glyph glyph-name="Ccedilla" unicode="&#xc7;" horiz-adv-x="1206" 
d="M628 -22q-163 0 -280 84.5t-179.5 231t-62.5 334.5q0 204 69.5 343.5t188 211.5t264.5 72q189 0 308.5 -96t170.5 -249l-126 -28q-42 125 -136.5 197.5t-216.5 72.5q-105 0 -195.5 -59.5t-146 -176.5t-55.5 -288q0 -153 42.5 -276.5t130.5 -196t224 -72.5q160 0 256.5 86
t96.5 229h129q0 -130 -62 -224t-171 -145t-249 -51zM443 -350l24 57q77 -43 139.5 -49t100 15.5t39.5 58.5q3 38 -30 66t-81.5 47t-94.5 29l68 171l82 -5l-65 -163l-39 55q87 -22 148.5 -50.5t93 -66t27.5 -87.5q-4 -57 -48 -90.5t-109 -43.5t-133.5 4t-121.5 52z" />
    <glyph glyph-name="Egrave" unicode="&#xc8;" horiz-adv-x="1100" 
d="M208 0v1235h744v-99h-628v-462h592v-99h-592v-474h628v-101h-744zM697 1416l-342 319l85 70l317 -341z" />
    <glyph glyph-name="Eacute" unicode="&#xc9;" horiz-adv-x="1100" 
d="M208 0v1235h744v-99h-628v-462h592v-99h-592v-474h628v-101h-744zM493 1408l-60 48l317 341l85 -70z" />
    <glyph glyph-name="Ecircumflex" unicode="&#xca;" horiz-adv-x="1100" 
d="M208 0v1235h744v-99h-628v-462h592v-99h-592v-474h628v-101h-744zM323 1359l-72 56l298 314l298 -314l-70 -56l-248 265h40z" />
    <glyph glyph-name="Edieresis" unicode="&#xcb;" horiz-adv-x="1100" 
d="M208 0v1235h744v-99h-628v-462h592v-99h-592v-474h628v-101h-744zM703 1425q-36 0 -61 23.5t-25 57.5q0 35 25 60.5t61 25.5q37 0 62.5 -25.5t25.5 -60.5q0 -34 -25.5 -57.5t-62.5 -23.5zM394 1425q-37 0 -61.5 23.5t-24.5 56.5q0 36 24.5 60.5t61.5 24.5t62.5 -24.5
t25.5 -60.5q0 -33 -25.5 -56.5t-62.5 -23.5z" />
    <glyph glyph-name="Igrave" unicode="&#xcc;" horiz-adv-x="536" 
d="M210 0v1235h116v-1235h-116zM415 1416l-342 319l85 70l317 -341z" />
    <glyph glyph-name="Iacute" unicode="&#xcd;" horiz-adv-x="536" 
d="M210 0v1235h116v-1235h-116zM211 1408l-60 48l317 341l85 -70z" />
    <glyph glyph-name="Icircumflex" unicode="&#xce;" horiz-adv-x="536" 
d="M210 0v1235h116v-1235h-116zM41 1359l-72 56l298 314l298 -314l-70 -56l-248 265h40z" />
    <glyph glyph-name="Idieresis" unicode="&#xcf;" horiz-adv-x="536" 
d="M210 0v1235h116v-1235h-116zM421 1425q-36 0 -61 23.5t-25 57.5q0 35 25 60.5t61 25.5q37 0 62.5 -25.5t25.5 -60.5q0 -34 -25.5 -57.5t-62.5 -23.5zM112 1425q-37 0 -61.5 23.5t-24.5 56.5q0 36 24.5 60.5t61.5 24.5t62.5 -24.5t25.5 -60.5q0 -33 -25.5 -56.5
t-62.5 -23.5z" />
    <glyph glyph-name="Eth" unicode="&#xd0;" horiz-adv-x="1294" 
d="M44 667h621v-99h-621v99zM210 1235h342q186 0 321.5 -76.5t209.5 -215t74 -325.5q0 -185 -74 -324t-209.5 -216.5t-321.5 -77.5h-342v1235zM326 1135v-1037h226q150 0 258 68t166.5 185.5t58.5 266.5q0 150 -58.5 266.5t-166.5 183.5t-258 67h-226z" />
    <glyph glyph-name="Ntilde" unicode="&#xd1;" horiz-adv-x="1335" 
d="M209 1235h150l662 -1088h-12v1088h116v-1235h-141l-676 1111h17v-1111h-116v1235zM417 1392l-49 33q24 90 65.5 135.5t94.5 45.5q24 0 51.5 -9t94.5 -44t90 -44.5t45 -9.5q29 0 57 25.5t49 81.5l52 -36q-16 -58 -40 -98t-53.5 -60t-61.5 -20q-27 0 -59.5 12t-101.5 47
q-59 31 -80.5 39t-42.5 8q-31 0 -59 -23.5t-52 -82.5z" />
    <glyph glyph-name="Ograve" unicode="&#xd2;" horiz-adv-x="1254" 
d="M628 -22q-148 0 -266 70t-187 211.5t-69 354.5q0 216 69 358.5t187 212.5t266 70q147 0 265 -70.5t187 -213t69 -357.5t-69 -356t-187 -210.5t-265 -69.5zM628 87q186 0 293 133.5t107 395.5q0 258 -107 396.5t-293 138.5q-185 0 -293 -139t-108 -398q0 -261 108 -394
t293 -133zM783 1416l-342 319l85 70l317 -341z" />
    <glyph glyph-name="Oacute" unicode="&#xd3;" horiz-adv-x="1254" 
d="M628 -22q-148 0 -266 70t-187 211.5t-69 354.5q0 216 69 358.5t187 212.5t266 70q147 0 265 -70.5t187 -213t69 -357.5t-69 -356t-187 -210.5t-265 -69.5zM628 87q186 0 293 133.5t107 395.5q0 258 -107 396.5t-293 138.5q-185 0 -293 -139t-108 -398q0 -261 108 -394
t293 -133zM579 1408l-60 48l317 341l85 -70z" />
    <glyph glyph-name="Ocircumflex" unicode="&#xd4;" horiz-adv-x="1254" 
d="M628 -22q-148 0 -266 70t-187 211.5t-69 354.5q0 216 69 358.5t187 212.5t266 70q147 0 265 -70.5t187 -213t69 -357.5t-69 -356t-187 -210.5t-265 -69.5zM628 87q186 0 293 133.5t107 395.5q0 258 -107 396.5t-293 138.5q-185 0 -293 -139t-108 -398q0 -261 108 -394
t293 -133zM409 1359l-72 56l298 314l298 -314l-70 -56l-248 265h40z" />
    <glyph glyph-name="Otilde" unicode="&#xd5;" horiz-adv-x="1254" 
d="M628 -22q-148 0 -266 70t-187 211.5t-69 354.5q0 216 69 358.5t187 212.5t266 70q147 0 265 -70.5t187 -213t69 -357.5t-69 -356t-187 -210.5t-265 -69.5zM628 87q186 0 293 133.5t107 395.5q0 258 -107 396.5t-293 138.5q-185 0 -293 -139t-108 -398q0 -261 108 -394
t293 -133zM386 1392l-49 33q24 90 65.5 135.5t94.5 45.5q24 0 51.5 -9t94.5 -44t90 -44.5t45 -9.5q29 0 57 25.5t49 81.5l52 -36q-16 -58 -40 -98t-53.5 -60t-61.5 -20q-27 0 -59.5 12t-101.5 47q-59 31 -80.5 39t-42.5 8q-31 0 -59 -23.5t-52 -82.5z" />
    <glyph glyph-name="Odieresis" unicode="&#xd6;" horiz-adv-x="1254" 
d="M628 -22q-148 0 -266 70t-187 211.5t-69 354.5q0 216 69 358.5t187 212.5t266 70q147 0 265 -70.5t187 -213t69 -357.5t-69 -356t-187 -210.5t-265 -69.5zM628 87q186 0 293 133.5t107 395.5q0 258 -107 396.5t-293 138.5q-185 0 -293 -139t-108 -398q0 -261 108 -394
t293 -133zM789 1425q-36 0 -61 23.5t-25 57.5q0 35 25 60.5t61 25.5q37 0 62.5 -25.5t25.5 -60.5q0 -34 -25.5 -57.5t-62.5 -23.5zM480 1425q-37 0 -61.5 23.5t-24.5 56.5q0 36 24.5 60.5t61.5 24.5t62.5 -24.5t25.5 -60.5q0 -33 -25.5 -56.5t-62.5 -23.5z" />
    <glyph glyph-name="multiply" unicode="&#xd7;" horiz-adv-x="1038" 
d="M221 120l-79 81l296 299l-296 294l79 81l299 -296l296 296l81 -81l-298 -294l298 -299l-81 -81l-296 296z" />
    <glyph glyph-name="Oslash" unicode="&#xd8;" horiz-adv-x="1254" 
d="M108 0l922 1238h107l-925 -1238h-104zM626 -22q-147 0 -265 70t-187.5 211.5t-69.5 354.5q0 216 69.5 358.5t187.5 212.5t265 70q148 0 265.5 -70.5t187 -213t69.5 -357.5t-69.5 -356t-187 -210.5t-265.5 -69.5zM626 87q187 0 294 133.5t107 395.5q0 258 -107 396.5
t-294 138.5q-185 0 -293 -139t-108 -398q0 -261 108 -394t293 -133z" />
    <glyph glyph-name="Ugrave" unicode="&#xd9;" horiz-adv-x="1269" 
d="M178 1235h116v-799q0 -185 93 -267.5t245 -82.5q150 0 242.5 82.5t92.5 267.5v799h116v-799q0 -155 -56.5 -256.5t-158 -151.5t-236.5 -50t-237.5 50t-159.5 151.5t-57 256.5v799zM781 1416l-342 319l85 70l317 -341z" />
    <glyph glyph-name="Uacute" unicode="&#xda;" horiz-adv-x="1269" 
d="M178 1235h116v-799q0 -185 93 -267.5t245 -82.5q150 0 242.5 82.5t92.5 267.5v799h116v-799q0 -155 -56.5 -256.5t-158 -151.5t-236.5 -50t-237.5 50t-159.5 151.5t-57 256.5v799zM578 1408l-60 48l317 341l85 -70z" />
    <glyph glyph-name="Ucircumflex" unicode="&#xdb;" horiz-adv-x="1269" 
d="M178 1235h116v-799q0 -185 93 -267.5t245 -82.5q150 0 242.5 82.5t92.5 267.5v799h116v-799q0 -155 -56.5 -256.5t-158 -151.5t-236.5 -50t-237.5 50t-159.5 151.5t-57 256.5v799zM408 1359l-72 56l298 314l298 -314l-70 -56l-248 265h40z" />
    <glyph glyph-name="Udieresis" unicode="&#xdc;" horiz-adv-x="1269" 
d="M178 1235h116v-799q0 -185 93 -267.5t245 -82.5q150 0 242.5 82.5t92.5 267.5v799h116v-799q0 -155 -56.5 -256.5t-158 -151.5t-236.5 -50t-237.5 50t-159.5 151.5t-57 256.5v799zM788 1425q-36 0 -61 23.5t-25 57.5q0 35 25 60.5t61 25.5q37 0 62.5 -25.5t25.5 -60.5
q0 -34 -25.5 -57.5t-62.5 -23.5zM479 1425q-37 0 -61.5 23.5t-24.5 56.5q0 36 24.5 60.5t61.5 24.5t62.5 -24.5t25.5 -60.5q0 -33 -25.5 -56.5t-62.5 -23.5z" />
    <glyph glyph-name="Yacute" unicode="&#xdd;" horiz-adv-x="1059" 
d="M20 1235h142l385 -636h-37l388 636h140l-450 -729v-506h-119v506zM473 1408l-60 48l317 341l85 -70z" />
    <glyph glyph-name="Thorn" unicode="&#xde;" horiz-adv-x="1080" 
d="M207 0v1235h118v-236l-27 26h286q201 0 304 -103t103 -272q0 -167 -103 -268.5t-304 -101.5h-286l27 26v-306h-118zM325 355l-27 26h286q141 0 214.5 71.5t73.5 197.5q0 128 -73.5 202t-214.5 74h-286l27 27v-598z" />
    <glyph glyph-name="germandbls" unicode="&#xdf;" horiz-adv-x="1192" 
d="M928 1076q0 -75 -29.5 -125t-68.5 -85.5t-69 -68t-30 -73.5q0 -42 33.5 -73.5t82.5 -62.5t98 -70t82 -96t33 -141q0 -87 -40 -156t-109 -108.5t-156 -39.5q-57 0 -130.5 17t-129.5 45l4 108q53 -40 118.5 -61t122.5 -21q70 0 114 28.5t64 74t20 94.5q0 70 -32.5 119
t-80 86.5t-95.5 71.5t-80.5 74.5t-32.5 95.5t30 94t70 75t70.5 79.5t30.5 108.5q0 80 -60 138.5t-180 58.5q-123 0 -188 -76.5t-65 -255.5v-931h-115v933q0 131 41.5 226t125.5 146.5t212 51.5q117 0 192 -39.5t111 -103.5t36 -138z" />
    <glyph glyph-name="agrave" unicode="&#xe0;" horiz-adv-x="1066" 
d="M789 0l-15 197v420q0 143 -62 203t-177 60q-64 0 -119 -18.5t-88 -59t-33 -106.5h-132q0 101 50 161.5t134.5 87t187.5 26.5q102 0 182 -35.5t126.5 -114t46.5 -206.5v-615h-101zM459 -22q-114 0 -188 41.5t-110 106.5t-36 134q0 100 48.5 160t130 87t178.5 27
q73 0 151.5 -16.5t150.5 -45.5v-78q-62 27 -143 43t-147 16q-102 0 -174 -44t-72 -149q0 -79 53.5 -134t172.5 -55q81 0 149 39t109.5 97t41.5 117h29q0 -91 -42.5 -170t-120 -127.5t-181.5 -48.5zM680 1129l-342 319l85 70l317 -341z" />
    <glyph glyph-name="aacute" unicode="&#xe1;" horiz-adv-x="1066" 
d="M789 0l-15 197v420q0 143 -62 203t-177 60q-64 0 -119 -18.5t-88 -59t-33 -106.5h-132q0 101 50 161.5t134.5 87t187.5 26.5q102 0 182 -35.5t126.5 -114t46.5 -206.5v-615h-101zM459 -22q-114 0 -188 41.5t-110 106.5t-36 134q0 100 48.5 160t130 87t178.5 27
q73 0 151.5 -16.5t150.5 -45.5v-78q-62 27 -143 43t-147 16q-102 0 -174 -44t-72 -149q0 -79 53.5 -134t172.5 -55q81 0 149 39t109.5 97t41.5 117h29q0 -91 -42.5 -170t-120 -127.5t-181.5 -48.5zM476 1122l-60 48l317 341l85 -70z" />
    <glyph glyph-name="acircumflex" unicode="&#xe2;" horiz-adv-x="1066" 
d="M789 0l-15 197v420q0 143 -62 203t-177 60q-64 0 -119 -18.5t-88 -59t-33 -106.5h-132q0 101 50 161.5t134.5 87t187.5 26.5q102 0 182 -35.5t126.5 -114t46.5 -206.5v-615h-101zM459 -22q-114 0 -188 41.5t-110 106.5t-36 134q0 100 48.5 160t130 87t178.5 27
q73 0 151.5 -16.5t150.5 -45.5v-78q-62 27 -143 43t-147 16q-102 0 -174 -44t-72 -149q0 -79 53.5 -134t172.5 -55q81 0 149 39t109.5 97t41.5 117h29q0 -91 -42.5 -170t-120 -127.5t-181.5 -48.5zM306 1073l-72 56l298 314l298 -314l-70 -56l-248 265h40z" />
    <glyph glyph-name="atilde" unicode="&#xe3;" horiz-adv-x="1066" 
d="M789 0l-15 197v420q0 143 -62 203t-177 60q-64 0 -119 -18.5t-88 -59t-33 -106.5h-132q0 101 50 161.5t134.5 87t187.5 26.5q102 0 182 -35.5t126.5 -114t46.5 -206.5v-615h-101zM459 -22q-114 0 -188 41.5t-110 106.5t-36 134q0 100 48.5 160t130 87t178.5 27
q73 0 151.5 -16.5t150.5 -45.5v-78q-62 27 -143 43t-147 16q-102 0 -174 -44t-72 -149q0 -79 53.5 -134t172.5 -55q81 0 149 39t109.5 97t41.5 117h29q0 -91 -42.5 -170t-120 -127.5t-181.5 -48.5zM283 1105l-49 33q24 90 65.5 135.5t94.5 45.5q24 0 51.5 -9t94.5 -44
t90 -44.5t45 -9.5q29 0 57 25.5t49 81.5l52 -36q-16 -58 -40 -98t-53.5 -60t-61.5 -20q-27 0 -59.5 12t-101.5 47q-59 31 -80.5 39t-42.5 8q-31 0 -59 -23.5t-52 -82.5z" />
    <glyph glyph-name="adieresis" unicode="&#xe4;" horiz-adv-x="1066" 
d="M789 0l-15 197v420q0 143 -62 203t-177 60q-64 0 -119 -18.5t-88 -59t-33 -106.5h-132q0 101 50 161.5t134.5 87t187.5 26.5q102 0 182 -35.5t126.5 -114t46.5 -206.5v-615h-101zM459 -22q-114 0 -188 41.5t-110 106.5t-36 134q0 100 48.5 160t130 87t178.5 27
q73 0 151.5 -16.5t150.5 -45.5v-78q-62 27 -143 43t-147 16q-102 0 -174 -44t-72 -149q0 -79 53.5 -134t172.5 -55q81 0 149 39t109.5 97t41.5 117h29q0 -91 -42.5 -170t-120 -127.5t-181.5 -48.5zM686 1138q-36 0 -61 23.5t-25 57.5q0 35 25 60.5t61 25.5q37 0 62.5 -25.5
t25.5 -60.5q0 -34 -25.5 -57.5t-62.5 -23.5zM377 1138q-37 0 -61.5 23.5t-24.5 56.5q0 36 24.5 60.5t61.5 24.5t62.5 -24.5t25.5 -60.5q0 -33 -25.5 -56.5t-62.5 -23.5z" />
    <glyph glyph-name="aring" unicode="&#xe5;" horiz-adv-x="1066" 
d="M789 0l-15 197v420q0 143 -62 203t-177 60q-64 0 -119 -18.5t-88 -59t-33 -106.5h-132q0 101 50 161.5t134.5 87t187.5 26.5q102 0 182 -35.5t126.5 -114t46.5 -206.5v-615h-101zM459 -22q-114 0 -188 41.5t-110 106.5t-36 134q0 100 48.5 160t130 87t178.5 27
q73 0 151.5 -16.5t150.5 -45.5v-78q-62 27 -143 43t-147 16q-102 0 -174 -44t-72 -149q0 -79 53.5 -134t172.5 -55q81 0 149 39t109.5 97t41.5 117h29q0 -91 -42.5 -170t-120 -127.5t-181.5 -48.5zM533 1064q-49 0 -90.5 24.5t-66 66t-24.5 91.5t24.5 91t66 66t91.5 25
q49 0 90.5 -25t66 -66t24.5 -91t-24.5 -91.5t-66 -66t-91.5 -24.5zM533 1153q40 0 66.5 27t26.5 66t-26.5 66t-66.5 27q-38 0 -65 -27t-27 -66t27 -66t65 -27z" />
    <glyph glyph-name="ae" unicode="&#xe6;" horiz-adv-x="1679" 
d="M786 302h-16v315q0 142 -62.5 202.5t-176.5 60.5q-63 0 -116.5 -18.5t-86.5 -59t-33 -106.5h-132q0 101 50 161.5t130.5 87t170.5 26.5q109 0 189 -37.5t124 -118.5t44 -209v-239zM450 -22q-101 0 -174 38.5t-112 104t-39 146.5q0 94 48 153t128 86.5t173 27.5
q79 0 158 -17.5t149 -44.5v-78q-62 27 -144 43t-147 16q-99 0 -170.5 -44.5t-71.5 -144.5q0 -82 53.5 -137.5t158.5 -55.5q88 0 158.5 38.5t111 97t40.5 117.5h77q0 -88 -50.5 -167.5t-140 -129t-206.5 -49.5zM1203 -22q-128 0 -224 64t-149.5 177t-53.5 260q0 146 53 257
t147 173t219 62q105 0 178.5 -42.5t118.5 -115.5t64 -165t14 -190h-700v80h630l-46 -30q3 65 -7.5 129.5t-39 118.5t-80.5 87t-131 33q-101 0 -168.5 -52.5t-102 -136t-34.5 -178.5v-49q0 -109 33.5 -196t101.5 -138t172 -51q99 0 167.5 50t81.5 153h123q-14 -93 -65 -160.5
t-129 -103.5t-173 -36z" />
    <glyph glyph-name="ccedilla" unicode="&#xe7;" horiz-adv-x="1018" 
d="M530 -22q-111 0 -208 61t-156.5 173t-59.5 265q0 155 59.5 265.5t156.5 169.5t208 59q74 0 134.5 -21.5t107 -60t79.5 -89t51 -108.5l-121 -18q-29 92 -95 144t-158 52q-78 0 -146.5 -45t-111.5 -132.5t-43 -215.5q0 -116 38.5 -205.5t106.5 -140t156 -50.5q121 0 187 60
t66 169h121q0 -98 -47 -173t-131 -117t-194 -42zM337 -349l24 57q77 -43 139.5 -49t100 15.5t39.5 58.5q3 38 -30 66t-81.5 47t-94.5 29l68 171l82 -5l-65 -163l-39 55q87 -22 148.5 -50.5t93 -66t27.5 -87.5q-4 -57 -48 -90.5t-109 -43.5t-133.5 4t-121.5 52z" />
    <glyph glyph-name="egrave" unicode="&#xe8;" horiz-adv-x="1010" 
d="M527 -22q-124 0 -218.5 63.5t-148.5 175t-54 254.5q0 156 53.5 268t148 172t219.5 60q105 0 178.5 -42.5t118.5 -115.5t63.5 -165t14.5 -190h-701v80h630l-46 -30q3 65 -7.5 129.5t-39 118.5t-79.5 87t-131 33q-102 0 -170 -52.5t-101.5 -136t-33.5 -178.5v-49
q0 -109 33.5 -196t101 -138t169.5 -51q105 0 171.5 51.5t79.5 151.5h124q-15 -95 -66.5 -162t-130.5 -102.5t-178 -35.5zM653 1129l-342 319l85 70l317 -341z" />
    <glyph glyph-name="eacute" unicode="&#xe9;" horiz-adv-x="1010" 
d="M527 -22q-124 0 -218.5 63.5t-148.5 175t-54 254.5q0 156 53.5 268t148 172t219.5 60q105 0 178.5 -42.5t118.5 -115.5t63.5 -165t14.5 -190h-701v80h630l-46 -30q3 65 -7.5 129.5t-39 118.5t-79.5 87t-131 33q-102 0 -170 -52.5t-101.5 -136t-33.5 -178.5v-49
q0 -109 33.5 -196t101 -138t169.5 -51q105 0 171.5 51.5t79.5 151.5h124q-15 -95 -66.5 -162t-130.5 -102.5t-178 -35.5zM449 1122l-60 48l317 341l85 -70z" />
    <glyph glyph-name="ecircumflex" unicode="&#xea;" horiz-adv-x="1010" 
d="M527 -22q-124 0 -218.5 63.5t-148.5 175t-54 254.5q0 156 53.5 268t148 172t219.5 60q105 0 178.5 -42.5t118.5 -115.5t63.5 -165t14.5 -190h-701v80h630l-46 -30q3 65 -7.5 129.5t-39 118.5t-79.5 87t-131 33q-102 0 -170 -52.5t-101.5 -136t-33.5 -178.5v-49
q0 -109 33.5 -196t101 -138t169.5 -51q105 0 171.5 51.5t79.5 151.5h124q-15 -95 -66.5 -162t-130.5 -102.5t-178 -35.5zM279 1073l-72 56l298 314l298 -314l-70 -56l-248 265h40z" />
    <glyph glyph-name="edieresis" unicode="&#xeb;" horiz-adv-x="1010" 
d="M527 -22q-124 0 -218.5 63.5t-148.5 175t-54 254.5q0 156 53.5 268t148 172t219.5 60q105 0 178.5 -42.5t118.5 -115.5t63.5 -165t14.5 -190h-701v80h630l-46 -30q3 65 -7.5 129.5t-39 118.5t-79.5 87t-131 33q-102 0 -170 -52.5t-101.5 -136t-33.5 -178.5v-49
q0 -109 33.5 -196t101 -138t169.5 -51q105 0 171.5 51.5t79.5 151.5h124q-15 -95 -66.5 -162t-130.5 -102.5t-178 -35.5zM659 1138q-36 0 -61 23.5t-25 57.5q0 35 25 60.5t61 25.5q37 0 62.5 -25.5t25.5 -60.5q0 -34 -25.5 -57.5t-62.5 -23.5zM350 1138q-37 0 -61.5 23.5
t-24.5 56.5q0 36 24.5 60.5t61.5 24.5t62.5 -24.5t25.5 -60.5q0 -33 -25.5 -56.5t-62.5 -23.5z" />
    <glyph glyph-name="igrave" unicode="&#xec;" horiz-adv-x="566" 
d="M215 0v950h116v-950h-116zM418 1129l-342 319l85 70l317 -341z" />
    <glyph glyph-name="iacute" unicode="&#xed;" horiz-adv-x="566" 
d="M215 0v950h116v-950h-116zM215 1122l-60 48l317 341l85 -70z" />
    <glyph glyph-name="icircumflex" unicode="&#xee;" horiz-adv-x="566" 
d="M215 0v950h116v-950h-116zM45 1073l-72 56l298 314l298 -314l-70 -56l-248 265h40z" />
    <glyph glyph-name="idieresis" unicode="&#xef;" horiz-adv-x="566" 
d="M215 0v950h116v-950h-116zM425 1138q-36 0 -61 23.5t-25 57.5q0 35 25 60.5t61 25.5q37 0 62.5 -25.5t25.5 -60.5q0 -34 -25.5 -57.5t-62.5 -23.5zM116 1138q-37 0 -61.5 23.5t-24.5 56.5q0 36 24.5 60.5t61.5 24.5t62.5 -24.5t25.5 -60.5q0 -33 -25.5 -56.5t-62.5 -23.5
z" />
    <glyph glyph-name="eth" unicode="&#xf0;" horiz-adv-x="1116" 
d="M546 -22q-114 0 -209.5 61.5t-153 174t-57.5 265.5q0 152 56.5 262t150 170t203.5 60q105 0 190 -54.5t135 -155.5t51 -241h-52q-1 121 -47.5 198t-116 114.5t-142.5 37.5q-83 0 -153 -47t-112 -134.5t-42 -212.5q0 -123 41.5 -211.5t111.5 -136t158 -47.5q94 0 158 54
t99 149.5t43 217.5q10 170 -19 325.5t-88 288.5t-141 236t-178 169l81 77q92 -65 175 -170t147.5 -237.5t102 -283t37.5 -306.5q0 -140 -31 -254.5t-88 -197t-135.5 -127t-174.5 -44.5zM455 1120l-38 80l555 264l37 -80z" />
    <glyph glyph-name="ntilde" unicode="&#xf1;" horiz-adv-x="1187" 
d="M897 0v559q0 151 -72.5 231t-199.5 80q-93 0 -160.5 -51t-103 -143t-35.5 -215h-51q0 156 42.5 270.5t126 177t207.5 62.5q110 0 190.5 -49t124.5 -141.5t44 -221.5v-559h-113zM210 0v949h98l18 -234v-715h-116zM377 1122l-49 33q24 90 65.5 135.5t94.5 45.5
q24 0 51.5 -9t94.5 -44t90 -44.5t45 -9.5q29 0 57 25.5t49 81.5l52 -36q-16 -58 -40 -98t-53.5 -60t-61.5 -20q-27 0 -59.5 12t-101.5 47q-59 31 -80.5 39t-42.5 8q-31 0 -59 -23.5t-52 -82.5z" />
    <glyph glyph-name="ograve" unicode="&#xf2;" horiz-adv-x="1073" 
d="M538 -22q-127 0 -224 57t-152.5 168t-55.5 272t55.5 271.5t152.5 167.5t224 57t224 -57t152 -167.5t55 -271.5t-55 -272t-152 -168t-224 -57zM536 79q105 0 175 49.5t104.5 138.5t34.5 208q0 179 -76.5 288t-233.5 109q-105 0 -174.5 -49.5t-104 -139t-34.5 -208.5
q0 -178 76.5 -287t232.5 -109zM684 1129l-342 319l85 70l317 -341z" />
    <glyph glyph-name="oacute" unicode="&#xf3;" horiz-adv-x="1073" 
d="M538 -22q-127 0 -224 57t-152.5 168t-55.5 272t55.5 271.5t152.5 167.5t224 57t224 -57t152 -167.5t55 -271.5t-55 -272t-152 -168t-224 -57zM536 79q105 0 175 49.5t104.5 138.5t34.5 208q0 179 -76.5 288t-233.5 109q-105 0 -174.5 -49.5t-104 -139t-34.5 -208.5
q0 -178 76.5 -287t232.5 -109zM480 1122l-60 48l317 341l85 -70z" />
    <glyph glyph-name="ocircumflex" unicode="&#xf4;" horiz-adv-x="1073" 
d="M538 -22q-127 0 -224 57t-152.5 168t-55.5 272t55.5 271.5t152.5 167.5t224 57t224 -57t152 -167.5t55 -271.5t-55 -272t-152 -168t-224 -57zM536 79q105 0 175 49.5t104.5 138.5t34.5 208q0 179 -76.5 288t-233.5 109q-105 0 -174.5 -49.5t-104 -139t-34.5 -208.5
q0 -178 76.5 -287t232.5 -109zM310 1073l-72 56l298 314l298 -314l-70 -56l-248 265h40z" />
    <glyph glyph-name="otilde" unicode="&#xf5;" horiz-adv-x="1073" 
d="M538 -22q-127 0 -224 57t-152.5 168t-55.5 272t55.5 271.5t152.5 167.5t224 57t224 -57t152 -167.5t55 -271.5t-55 -272t-152 -168t-224 -57zM536 79q105 0 175 49.5t104.5 138.5t34.5 208q0 179 -76.5 288t-233.5 109q-105 0 -174.5 -49.5t-104 -139t-34.5 -208.5
q0 -178 76.5 -287t232.5 -109zM287 1105l-49 33q24 90 65.5 135.5t94.5 45.5q24 0 51.5 -9t94.5 -44t90 -44.5t45 -9.5q29 0 57 25.5t49 81.5l52 -36q-16 -58 -40 -98t-53.5 -60t-61.5 -20q-27 0 -59.5 12t-101.5 47q-59 31 -80.5 39t-42.5 8q-31 0 -59 -23.5t-52 -82.5z
" />
    <glyph glyph-name="odieresis" unicode="&#xf6;" horiz-adv-x="1073" 
d="M538 -22q-127 0 -224 57t-152.5 168t-55.5 272t55.5 271.5t152.5 167.5t224 57t224 -57t152 -167.5t55 -271.5t-55 -272t-152 -168t-224 -57zM536 79q105 0 175 49.5t104.5 138.5t34.5 208q0 179 -76.5 288t-233.5 109q-105 0 -174.5 -49.5t-104 -139t-34.5 -208.5
q0 -178 76.5 -287t232.5 -109zM691 1138q-36 0 -61 23.5t-25 57.5q0 35 25 60.5t61 25.5q37 0 62.5 -25.5t25.5 -60.5q0 -34 -25.5 -57.5t-62.5 -23.5zM382 1138q-37 0 -61.5 23.5t-24.5 56.5q0 36 24.5 60.5t61.5 24.5t62.5 -24.5t25.5 -60.5q0 -33 -25.5 -56.5
t-62.5 -23.5z" />
    <glyph glyph-name="divide" unicode="&#xf7;" horiz-adv-x="1026" 
d="M183 456v100h659v-100h-659zM512 171q-36 0 -60.5 24.5t-24.5 57.5t24.5 59t60.5 26q37 0 61.5 -26t24.5 -59t-24.5 -57.5t-61.5 -24.5zM512 674q-36 0 -60.5 23.5t-24.5 58.5q0 34 24.5 58t60.5 24q37 0 61.5 -24t24.5 -58q0 -35 -24.5 -58.5t-61.5 -23.5z" />
    <glyph glyph-name="oslash" unicode="&#xf8;" horiz-adv-x="1073" 
d="M538 -22q-127 0 -224 57t-152.5 168t-55.5 272t55.5 271.5t152.5 167.5t224 57t224 -57t152 -167.5t55 -271.5t-55 -272t-152 -168t-224 -57zM536 79q105 0 175 49.5t104.5 138.5t34.5 208q0 179 -76.5 288t-233.5 109q-105 0 -174.5 -49.5t-104 -139t-34.5 -208.5
q0 -178 76.5 -287t232.5 -109zM66.3447 0.967773l789.943 943.787h108.315l-793.584 -943.787h-104.675z" />
    <glyph glyph-name="ugrave" unicode="&#xf9;" horiz-adv-x="1190" 
d="M862 950h116v-950h-116v950zM178 950h116v-596q0 -132 64.5 -201.5t186.5 -69.5q100 0 171 54t108.5 145t37.5 201h55q0 -152 -47 -265t-133 -174.5t-204 -61.5q-110 0 -189.5 41t-122.5 122.5t-43 202.5v602zM761 1129l-342 319l85 70l317 -341z" />
    <glyph glyph-name="uacute" unicode="&#xfa;" horiz-adv-x="1190" 
d="M862 950h116v-950h-116v950zM178 950h116v-596q0 -132 64.5 -201.5t186.5 -69.5q100 0 171 54t108.5 145t37.5 201h55q0 -152 -47 -265t-133 -174.5t-204 -61.5q-110 0 -189.5 41t-122.5 122.5t-43 202.5v602zM557 1122l-60 48l317 341l85 -70z" />
    <glyph glyph-name="ucircumflex" unicode="&#xfb;" horiz-adv-x="1190" 
d="M862 950h116v-950h-116v950zM178 950h116v-596q0 -132 64.5 -201.5t186.5 -69.5q100 0 171 54t108.5 145t37.5 201h55q0 -152 -47 -265t-133 -174.5t-204 -61.5q-110 0 -189.5 41t-122.5 122.5t-43 202.5v602zM387 1073l-72 56l298 314l298 -314l-70 -56l-248 265h40z
" />
    <glyph glyph-name="udieresis" unicode="&#xfc;" horiz-adv-x="1190" 
d="M862 950h116v-950h-116v950zM178 950h116v-596q0 -132 64.5 -201.5t186.5 -69.5q100 0 171 54t108.5 145t37.5 201h55q0 -152 -47 -265t-133 -174.5t-204 -61.5q-110 0 -189.5 41t-122.5 122.5t-43 202.5v602zM768 1138q-36 0 -61 23.5t-25 57.5q0 35 25 60.5t61 25.5
q37 0 62.5 -25.5t25.5 -60.5q0 -34 -25.5 -57.5t-62.5 -23.5zM459 1138q-37 0 -61.5 23.5t-24.5 56.5q0 36 24.5 60.5t61.5 24.5t62.5 -24.5t25.5 -60.5q0 -33 -25.5 -56.5t-62.5 -23.5z" />
    <glyph glyph-name="yacute" unicode="&#xfd;" horiz-adv-x="893" 
d="M47 949h127l339 -848h-33l252 848h120l-354 -1149q-39 -130 -109.5 -208.5t-186.5 -78.5q-60 0 -112 19t-108 54v112q52 -45 101 -64.5t103 -19.5q67 0 109.5 44t70 111t47.5 134l27 97zM390 1122l-60 48l317 341l85 -70z" />
    <glyph glyph-name="thorn" unicode="&#xfe;" 
d="M618 -22q-104 0 -182.5 49t-122 141t-43.5 221h56q0 -101 40.5 -169.5t105 -103.5t136.5 -35q79 0 149 46t114 134.5t44 215.5q0 125 -42 212.5t-111.5 134t-152.5 46.5q-72 0 -137 -36t-105.5 -105.5t-40.5 -172.5h-56q0 132 45.5 225t124.5 141.5t179 48.5
q111 0 206 -59.5t153 -170t58 -264.5q0 -156 -58.5 -268t-154 -171.5t-205.5 -59.5zM210 -468v1703h116v-1703h-116z" />
    <glyph glyph-name="ydieresis" unicode="&#xff;" horiz-adv-x="893" 
d="M47 949h127l339 -848h-33l252 848h120l-354 -1149q-39 -130 -109.5 -208.5t-186.5 -78.5q-60 0 -112 19t-108 54v112q52 -45 101 -64.5t103 -19.5q67 0 109.5 44t70 111t47.5 134l27 97zM600 1138q-36 0 -61 23.5t-25 57.5q0 35 25 60.5t61 25.5q37 0 62.5 -25.5
t25.5 -60.5q0 -34 -25.5 -57.5t-62.5 -23.5zM291 1138q-37 0 -61.5 23.5t-24.5 56.5q0 36 24.5 60.5t61.5 24.5t62.5 -24.5t25.5 -60.5q0 -33 -25.5 -56.5t-62.5 -23.5z" />
    <glyph glyph-name="Amacron" unicode="&#x100;" horiz-adv-x="1098" 
d="M56 0l427 1235h137l421 -1235h-122l-114 343h-509l-119 -343h-121zM326 437h447l-224 654zM257 1553h591v-98h-591v98z" />
    <glyph glyph-name="amacron" unicode="&#x101;" horiz-adv-x="1066" 
d="M789 0l-15 197v420q0 143 -62 203t-177 60q-64 0 -119 -18.5t-88 -59t-33 -106.5h-132q0 101 50 161.5t134.5 87t187.5 26.5q102 0 182 -35.5t126.5 -114t46.5 -206.5v-615h-101zM459 -22q-114 0 -188 41.5t-110 106.5t-36 134q0 100 48.5 160t130 87t178.5 27
q73 0 151.5 -16.5t150.5 -45.5v-78q-62 27 -143 43t-147 16q-102 0 -174 -44t-72 -149q0 -79 53.5 -134t172.5 -55q81 0 149 39t109.5 97t41.5 117h29q0 -91 -42.5 -170t-120 -127.5t-181.5 -48.5zM238 1266h591v-98h-591v98z" />
    <glyph glyph-name="Abreve" unicode="&#x102;" horiz-adv-x="1098" 
d="M56 0l427 1235h137l421 -1235h-122l-114 343h-509l-119 -343h-121zM326 437h447l-224 654zM552 1435q-117 0 -188 66t-71 160h102q0 -67 43.5 -105t113.5 -38q71 0 114 38t43 105h102q0 -94 -71 -160t-188 -66z" />
    <glyph glyph-name="abreve" unicode="&#x103;" horiz-adv-x="1066" 
d="M789 0l-15 197v420q0 143 -62 203t-177 60q-64 0 -119 -18.5t-88 -59t-33 -106.5h-132q0 101 50 161.5t134.5 87t187.5 26.5q102 0 182 -35.5t126.5 -114t46.5 -206.5v-615h-101zM459 -22q-114 0 -188 41.5t-110 106.5t-36 134q0 100 48.5 160t130 87t178.5 27
q73 0 151.5 -16.5t150.5 -45.5v-78q-62 27 -143 43t-147 16q-102 0 -174 -44t-72 -149q0 -79 53.5 -134t172.5 -55q81 0 149 39t109.5 97t41.5 117h29q0 -91 -42.5 -170t-120 -127.5t-181.5 -48.5zM533 1148q-117 0 -188 66t-71 160h102q0 -67 43.5 -105t113.5 -38
q71 0 114 38t43 105h102q0 -94 -71 -160t-188 -66z" />
    <glyph glyph-name="Aogonek" unicode="&#x104;" horiz-adv-x="1098" 
d="M56 0l427 1235h137l421 -1235h-122l-114 343h-509l-119 -343h-121zM326 437h447l-224 654zM1157 -335q-61 -36 -130 -55t-131 -19q-94 0 -148.5 43.5t-54.5 117.5q0 83 70 159.5t210 127.5l61 -39q-116 -51 -183.5 -106t-67.5 -118q0 -48 38 -71.5t94 -23.5q47 0 99 16
t113 50z" />
    <glyph glyph-name="aogonek" unicode="&#x105;" horiz-adv-x="1066" 
d="M789 0l-15 197v420q0 143 -62 203t-177 60q-64 0 -119 -18.5t-88 -59t-33 -106.5h-132q0 101 50 161.5t134.5 87t187.5 26.5q102 0 182 -35.5t126.5 -114t46.5 -206.5v-615h-101zM459 -22q-114 0 -188 41.5t-110 106.5t-36 134q0 100 48.5 160t130 87t178.5 27
q73 0 151.5 -16.5t150.5 -45.5v-78q-62 27 -143 43t-147 16q-102 0 -174 -44t-72 -149q0 -79 53.5 -134t172.5 -55q81 0 149 39t109.5 97t41.5 117h29q0 -91 -42.5 -170t-120 -127.5t-181.5 -48.5zM1013 -335q-61 -36 -130 -55t-131 -19q-94 0 -148.5 43.5t-54.5 117.5
q0 83 70 159.5t210 127.5l61 -39q-116 -51 -183.5 -106t-67.5 -118q0 -48 38 -71.5t94 -23.5q47 0 99 16t113 50z" />
    <glyph glyph-name="Cacute" unicode="&#x106;" horiz-adv-x="1206" 
d="M628 -22q-163 0 -280 84.5t-179.5 231t-62.5 334.5q0 204 69.5 343.5t188 211.5t264.5 72q189 0 308.5 -96t170.5 -249l-126 -28q-42 125 -136.5 197.5t-216.5 72.5q-105 0 -195.5 -59.5t-146 -176.5t-55.5 -288q0 -153 42.5 -276.5t130.5 -196t224 -72.5q160 0 256.5 86
t96.5 229h129q0 -130 -62 -224t-171 -145t-249 -51zM576 1408l-60 48l317 341l85 -70z" />
    <glyph glyph-name="cacute" unicode="&#x107;" horiz-adv-x="1018" 
d="M530 -22q-111 0 -208 61t-156.5 173t-59.5 265q0 155 59.5 265.5t156.5 169.5t208 59q74 0 134.5 -21.5t107 -60t79.5 -89t51 -108.5l-121 -18q-29 92 -95 144t-158 52q-78 0 -146.5 -45t-111.5 -132.5t-43 -215.5q0 -116 38.5 -205.5t106.5 -140t156 -50.5q121 0 187 60
t66 169h121q0 -98 -47 -173t-131 -117t-194 -42zM472 1122l-60 48l317 341l85 -70z" />
    <glyph glyph-name="Cdotaccent" unicode="&#x10a;" horiz-adv-x="1206" 
d="M628 -22q-163 0 -280 84.5t-179.5 231t-62.5 334.5q0 204 69.5 343.5t188 211.5t264.5 72q189 0 308.5 -96t170.5 -249l-126 -28q-42 125 -136.5 197.5t-216.5 72.5q-105 0 -195.5 -59.5t-146 -176.5t-55.5 -288q0 -153 42.5 -276.5t130.5 -196t224 -72.5q160 0 256.5 86
t96.5 229h129q0 -130 -62 -224t-171 -145t-249 -51zM556.755 1515.66q0 35.3213 26.001 62.793q26 27.4717 64.2646 27.4717q39.2451 0 66.7168 -27.4717q27.4727 -27.4717 27.4727 -62.793q0 -36.3027 -27.4727 -61.8115q-27.4717 -25.5098 -66.7168 -25.5098
q-38.2646 0 -64.2646 25.5098q-26.001 25.5088 -26.001 61.8115z" />
    <glyph glyph-name="cdotaccent" unicode="&#x10b;" horiz-adv-x="1018" 
d="M530 -22q-111 0 -208 61t-156.5 173t-59.5 265q0 155 59.5 265.5t156.5 169.5t208 59q74 0 134.5 -21.5t107 -60t79.5 -89t51 -108.5l-121 -18q-29 92 -95 144t-158 52q-78 0 -146.5 -45t-111.5 -132.5t-43 -215.5q0 -116 38.5 -205.5t106.5 -140t156 -50.5q121 0 187 60
t66 169h121q0 -98 -47 -173t-131 -117t-194 -42zM452.755 1229.66q0 35.3213 26.001 62.793q26 27.4717 64.2646 27.4717q39.2451 0 66.7168 -27.4717q27.4727 -27.4717 27.4727 -62.793q0 -36.3027 -27.4727 -61.8115q-27.4717 -25.5098 -66.7168 -25.5098
q-38.2646 0 -64.2646 25.5098q-26.001 25.5088 -26.001 61.8115z" />
    <glyph glyph-name="Ccaron" unicode="&#x10c;" horiz-adv-x="1206" 
d="M628 -22q-163 0 -280 84.5t-179.5 231t-62.5 334.5q0 204 69.5 343.5t188 211.5t264.5 72q189 0 308.5 -96t170.5 -249l-126 -28q-42 125 -136.5 197.5t-216.5 72.5q-105 0 -195.5 -59.5t-146 -176.5t-55.5 -288q0 -153 42.5 -276.5t130.5 -196t224 -72.5q160 0 256.5 86
t96.5 229h129q0 -130 -62 -224t-171 -145t-249 -51zM634 1389l-298 313l72 56l246 -272h-40l248 272l70 -56z" />
    <glyph glyph-name="ccaron" unicode="&#x10d;" horiz-adv-x="1018" 
d="M530 -22q-111 0 -208 61t-156.5 173t-59.5 265q0 155 59.5 265.5t156.5 169.5t208 59q74 0 134.5 -21.5t107 -60t79.5 -89t51 -108.5l-121 -18q-29 92 -95 144t-158 52q-78 0 -146.5 -45t-111.5 -132.5t-43 -215.5q0 -116 38.5 -205.5t106.5 -140t156 -50.5q121 0 187 60
t66 169h121q0 -98 -47 -173t-131 -117t-194 -42zM530 1102l-298 313l72 56l246 -272h-40l248 272l70 -56z" />
    <glyph glyph-name="Dcaron" unicode="&#x10e;" horiz-adv-x="1294" 
d="M210 1235h342q186 0 321.5 -76.5t209.5 -215t74 -325.5q0 -185 -74 -324t-209.5 -216.5t-321.5 -77.5h-342v1235zM326 1135v-1037h226q150 0 258 68t166.5 185.5t58.5 266.5q0 150 -58.5 266.5t-166.5 183.5t-258 67h-226zM648 1389l-298 313l72 56l246 -272h-40l248 272
l70 -56z" />
    <glyph glyph-name="dcaron" unicode="&#x10f;" horiz-adv-x="1303" 
d="M1089 1038l-82 40q54 26 87 57.5t42 80.5q-36 1 -61.5 21.5t-25.5 55.5q0 30 22 53.5t58 23.5q44 0 75 -34t31 -83q0 -58 -34.5 -116.5t-111.5 -98.5zM544 -22q-113 0 -208.5 61.5t-152.5 173.5t-57 265t56.5 263.5t150 170t204.5 59.5q103 0 183 -50.5t125 -144
t45 -224.5h-53q0 105 -40.5 175.5t-105.5 106.5t-139 36q-81 0 -150.5 -47t-112 -134t-42.5 -211q0 -125 42 -214t112 -136t152 -47q70 0 135 36t107 106.5t42 173.5h53q0 -132 -45.5 -226t-124 -143.5t-176.5 -49.5zM854 0l-17 216v1144h115v-1360h-98z" />
    <glyph glyph-name="Dcroat" unicode="&#x110;" horiz-adv-x="1294" 
d="M44 667h621v-99h-621v99zM210 1235h342q186 0 321.5 -76.5t209.5 -215t74 -325.5q0 -185 -74 -324t-209.5 -216.5t-321.5 -77.5h-342v1235zM326 1135v-1037h226q150 0 258 68t166.5 185.5t58.5 266.5q0 150 -58.5 266.5t-166.5 183.5t-258 67h-226z" />
    <glyph glyph-name="dcroat" unicode="&#x111;" horiz-adv-x="1164" 
d="M544 -22q-113 0 -208.5 61.5t-152.5 173.5t-57 265t56.5 263.5t150 170t204.5 59.5q103 0 183 -50.5t125 -144t45 -224.5h-53q0 105 -40.5 175.5t-105.5 106.5t-139 36q-81 0 -150.5 -47t-112 -134t-42.5 -211q0 -125 42 -214t112 -136t152 -47q70 0 135 36t107 106.5
t42 173.5h53q0 -132 -45.5 -226t-124 -143.5t-176.5 -49.5zM854 0l-17 216v1144h115v-1360h-98zM571 1111v94h540v-94h-540z" />
    <glyph glyph-name="Emacron" unicode="&#x112;" horiz-adv-x="1100" 
d="M208 0v1235h744v-99h-628v-462h592v-99h-592v-474h628v-101h-744zM255 1553h591v-98h-591v98z" />
    <glyph glyph-name="emacron" unicode="&#x113;" horiz-adv-x="1010" 
d="M527 -22q-124 0 -218.5 63.5t-148.5 175t-54 254.5q0 156 53.5 268t148 172t219.5 60q105 0 178.5 -42.5t118.5 -115.5t63.5 -165t14.5 -190h-701v80h630l-46 -30q3 65 -7.5 129.5t-39 118.5t-79.5 87t-131 33q-102 0 -170 -52.5t-101.5 -136t-33.5 -178.5v-49
q0 -109 33.5 -196t101 -138t169.5 -51q105 0 171.5 51.5t79.5 151.5h124q-15 -95 -66.5 -162t-130.5 -102.5t-178 -35.5zM211 1266h591v-98h-591v98z" />
    <glyph glyph-name="Edotaccent" unicode="&#x116;" horiz-adv-x="1100" 
d="M208 0v1235h744v-99h-628v-462h592v-99h-592v-474h628v-101h-744zM473.755 1515.66q0 35.3213 26.001 62.793q26 27.4717 64.2646 27.4717q39.2451 0 66.7168 -27.4717q27.4727 -27.4717 27.4727 -62.793q0 -36.3027 -27.4727 -61.8115
q-27.4717 -25.5098 -66.7168 -25.5098q-38.2646 0 -64.2646 25.5098q-26.001 25.5088 -26.001 61.8115z" />
    <glyph glyph-name="edotaccent" unicode="&#x117;" horiz-adv-x="1010" 
d="M527 -22q-124 0 -218.5 63.5t-148.5 175t-54 254.5q0 156 53.5 268t148 172t219.5 60q105 0 178.5 -42.5t118.5 -115.5t63.5 -165t14.5 -190h-701v80h630l-46 -30q3 65 -7.5 129.5t-39 118.5t-79.5 87t-131 33q-102 0 -170 -52.5t-101.5 -136t-33.5 -178.5v-49
q0 -109 33.5 -196t101 -138t169.5 -51q105 0 171.5 51.5t79.5 151.5h124q-15 -95 -66.5 -162t-130.5 -102.5t-178 -35.5zM429.755 1229.66q0 35.3213 26.001 62.793q26 27.4717 64.2646 27.4717q39.2451 0 66.7168 -27.4717q27.4727 -27.4717 27.4727 -62.793
q0 -36.3027 -27.4727 -61.8115q-27.4717 -25.5098 -66.7168 -25.5098q-38.2646 0 -64.2646 25.5098q-26.001 25.5088 -26.001 61.8115z" />
    <glyph glyph-name="Eogonek" unicode="&#x118;" horiz-adv-x="1100" 
d="M208 0v1235h744v-99h-628v-462h592v-99h-592v-474h628v-101h-744zM827 -335q-61 -36 -130 -55t-131 -19q-94 0 -148.5 43.5t-54.5 117.5q0 83 70 159.5t210 127.5l61 -39q-116 -51 -183.5 -106t-67.5 -118q0 -48 38 -71.5t94 -23.5q47 0 99 16t113 50z" />
    <glyph glyph-name="eogonek" unicode="&#x119;" horiz-adv-x="1010" 
d="M527 -22q-124 0 -218.5 63.5t-148.5 175t-54 254.5q0 156 53.5 268t148 172t219.5 60q105 0 178.5 -42.5t118.5 -115.5t63.5 -165t14.5 -190h-701v80h630l-46 -30q3 65 -7.5 129.5t-39 118.5t-79.5 87t-131 33q-102 0 -170 -52.5t-101.5 -136t-33.5 -178.5v-49
q0 -109 33.5 -196t101 -138t169.5 -51q105 0 171.5 51.5t79.5 151.5h124q-15 -95 -66.5 -162t-130.5 -102.5t-178 -35.5zM749 -335q-61 -36 -130 -55t-131 -19q-94 0 -148.5 43.5t-54.5 117.5q0 83 70 159.5t210 127.5l61 -39q-116 -51 -183.5 -106t-67.5 -118
q0 -48 38 -71.5t94 -23.5q47 0 99 16t113 50z" />
    <glyph glyph-name="Ecaron" unicode="&#x11a;" horiz-adv-x="1100" 
d="M208 0v1235h744v-99h-628v-462h592v-99h-592v-474h628v-101h-744zM551 1389l-298 313l72 56l246 -272h-40l248 272l70 -56z" />
    <glyph glyph-name="ecaron" unicode="&#x11b;" horiz-adv-x="1010" 
d="M527 -22q-124 0 -218.5 63.5t-148.5 175t-54 254.5q0 156 53.5 268t148 172t219.5 60q105 0 178.5 -42.5t118.5 -115.5t63.5 -165t14.5 -190h-701v80h630l-46 -30q3 65 -7.5 129.5t-39 118.5t-79.5 87t-131 33q-102 0 -170 -52.5t-101.5 -136t-33.5 -178.5v-49
q0 -109 33.5 -196t101 -138t169.5 -51q105 0 171.5 51.5t79.5 151.5h124q-15 -95 -66.5 -162t-130.5 -102.5t-178 -35.5zM507 1102l-298 313l72 56l246 -272h-40l248 272l70 -56z" />
    <glyph glyph-name="Gbreve" unicode="&#x11e;" horiz-adv-x="1255" 
d="M636 -22q-145 0 -266 75t-192.5 214.5t-71.5 332.5q0 165 47 288t128.5 204.5t185.5 122t217 40.5q130 0 234 -51.5t189 -162.5l-101 -50q-76 83 -157 120.5t-168 37.5q-121 0 -224.5 -66t-166 -189t-62.5 -294q0 -148 49.5 -264t142 -183t221.5 -67q95 0 170.5 44
t119 136t43.5 236h46q0 -159 -38 -277t-122.5 -182.5t-223.5 -64.5zM999 0l-25 301v203l-328 12v84h443v-600h-90zM628 1435q-117 0 -188 66t-71 160h102q0 -67 43.5 -105t113.5 -38q71 0 114 38t43 105h102q0 -94 -71 -160t-188 -66z" />
    <glyph glyph-name="gbreve" unicode="&#x11f;" horiz-adv-x="1111" 
d="M530 -487q-137 0 -240 39.5t-160.5 106.5t-57.5 149q0 115 84.5 174.5t221.5 59.5l43 -49q-113 0 -175 -49t-62 -133q0 -83 86.5 -143t259.5 -60q130 0 228.5 36.5t154 96t55.5 128.5q0 50 -37.5 87t-114.5 37h-395q-97 0 -162 28t-98.5 74t-33.5 98q0 60 33.5 100.5
t86.5 61.5t111 21l15 -48q-31 0 -63 -14.5t-54.5 -43t-22.5 -72.5q0 -49 40 -83t148 -34h395q126 0 197.5 -57t71.5 -151q0 -88 -66 -171t-190 -136t-299 -53zM566 270q-108 0 -192.5 44.5t-133.5 124t-49 182.5q0 104 49 183t133.5 123t192.5 44q105 0 188.5 -44
t132.5 -123t49 -183q0 -103 -49 -182.5t-132.5 -124t-188.5 -44.5zM565 356q119 0 187.5 75.5t68.5 189.5q0 115 -68.5 188t-186.5 73q-119 0 -188.5 -73t-69.5 -188q0 -114 69.5 -189.5t187.5 -75.5zM865 821l-57 14q0 83 29.5 145.5t87 97.5t142.5 35l-12 -118
q-92 0 -141 -42.5t-49 -131.5zM556 1148q-117 0 -188 66t-71 160h102q0 -67 43.5 -105t113.5 -38q71 0 114 38t43 105h102q0 -94 -71 -160t-188 -66z" />
    <glyph glyph-name="Gdotaccent" unicode="&#x120;" horiz-adv-x="1255" 
d="M636 -22q-145 0 -266 75t-192.5 214.5t-71.5 332.5q0 165 47 288t128.5 204.5t185.5 122t217 40.5q130 0 234 -51.5t189 -162.5l-101 -50q-76 83 -157 120.5t-168 37.5q-121 0 -224.5 -66t-166 -189t-62.5 -294q0 -148 49.5 -264t142 -183t221.5 -67q95 0 170.5 44
t119 136t43.5 236h46q0 -159 -38 -277t-122.5 -182.5t-223.5 -64.5zM999 0l-25 301v203l-328 12v84h443v-600h-90zM551.755 1515.66q0 35.3213 26.001 62.793q26 27.4717 64.2646 27.4717q39.2451 0 66.7168 -27.4717q27.4727 -27.4717 27.4727 -62.793
q0 -36.3027 -27.4727 -61.8115q-27.4717 -25.5098 -66.7168 -25.5098q-38.2646 0 -64.2646 25.5098q-26.001 25.5088 -26.001 61.8115z" />
    <glyph glyph-name="gdotaccent" unicode="&#x121;" horiz-adv-x="1111" 
d="M530 -487q-137 0 -240 39.5t-160.5 106.5t-57.5 149q0 115 84.5 174.5t221.5 59.5l43 -49q-113 0 -175 -49t-62 -133q0 -83 86.5 -143t259.5 -60q130 0 228.5 36.5t154 96t55.5 128.5q0 50 -37.5 87t-114.5 37h-395q-97 0 -162 28t-98.5 74t-33.5 98q0 60 33.5 100.5
t86.5 61.5t111 21l15 -48q-31 0 -63 -14.5t-54.5 -43t-22.5 -72.5q0 -49 40 -83t148 -34h395q126 0 197.5 -57t71.5 -151q0 -88 -66 -171t-190 -136t-299 -53zM566 270q-108 0 -192.5 44.5t-133.5 124t-49 182.5q0 104 49 183t133.5 123t192.5 44q105 0 188.5 -44
t132.5 -123t49 -183q0 -103 -49 -182.5t-132.5 -124t-188.5 -44.5zM565 356q119 0 187.5 75.5t68.5 189.5q0 115 -68.5 188t-186.5 73q-119 0 -188.5 -73t-69.5 -188q0 -114 69.5 -189.5t187.5 -75.5zM865 821l-57 14q0 83 29.5 145.5t87 97.5t142.5 35l-12 -118
q-92 0 -141 -42.5t-49 -131.5zM480.755 1229.66q0 35.3213 26.001 62.793q26 27.4717 64.2646 27.4717q39.2451 0 66.7168 -27.4717q27.4727 -27.4717 27.4727 -62.793q0 -36.3027 -27.4727 -61.8115q-27.4717 -25.5098 -66.7168 -25.5098q-38.2646 0 -64.2646 25.5098
q-26.001 25.5088 -26.001 61.8115z" />
    <glyph glyph-name="uni0122" unicode="&#x122;" horiz-adv-x="1255" 
d="M636 -22q-145 0 -266 75t-192.5 214.5t-71.5 332.5q0 165 47 288t128.5 204.5t185.5 122t217 40.5q130 0 234 -51.5t189 -162.5l-101 -50q-76 83 -157 120.5t-168 37.5q-121 0 -224.5 -66t-166 -189t-62.5 -294q0 -148 49.5 -264t142 -183t221.5 -67q95 0 170.5 44
t119 136t43.5 236h46q0 -159 -38 -277t-122.5 -182.5t-223.5 -64.5zM999 0l-25 301v203l-328 12v84h443v-600h-90zM580 -434l-79 40q55 26 90.5 57.5t47.5 80.5q-36 1 -59.5 21.5t-20.5 55.5q2 32 25.5 54.5t59.5 22.5q40 0 69.5 -31t27.5 -86q-2 -53 -41 -114t-120 -101z
" />
    <glyph glyph-name="uni0123" unicode="&#x123;" horiz-adv-x="1111" 
d="M530 -487q-137 0 -240 39.5t-160.5 106.5t-57.5 149q0 115 84.5 174.5t221.5 59.5l43 -49q-113 0 -175 -49t-62 -133q0 -83 86.5 -143t259.5 -60q130 0 228.5 36.5t154 96t55.5 128.5q0 50 -37.5 87t-114.5 37h-395q-97 0 -162 28t-98.5 74t-33.5 98q0 60 33.5 100.5
t86.5 61.5t111 21l15 -48q-31 0 -63 -14.5t-54.5 -43t-22.5 -72.5q0 -49 40 -83t148 -34h395q126 0 197.5 -57t71.5 -151q0 -88 -66 -171t-190 -136t-299 -53zM566 270q-108 0 -192.5 44.5t-133.5 124t-49 182.5q0 104 49 183t133.5 123t192.5 44q105 0 188.5 -44
t132.5 -123t49 -183q0 -103 -49 -182.5t-132.5 -124t-188.5 -44.5zM565 356q119 0 187.5 75.5t68.5 189.5q0 115 -68.5 188t-186.5 73q-119 0 -188.5 -73t-69.5 -188q0 -114 69.5 -189.5t187.5 -75.5zM865 821l-57 14q0 83 29.5 145.5t87 97.5t142.5 35l-12 -118
q-92 0 -141 -42.5t-49 -131.5zM637 1372l79 -40q-55 -26 -90.5 -57.5t-47.5 -80.5q36 -1 59.5 -21.5t20.5 -55.5q-2 -32 -25.5 -54.5t-59.5 -22.5q-40 0 -69.5 31t-27.5 86q2 53 41 114t120 101z" />
    <glyph glyph-name="Hbar" unicode="&#x126;" horiz-adv-x="1300" 
d="M210 1235h116v-598h650v598h113v-1235h-113v538h-650v-538h-116v1235zM283 818v96h744v-96h-744z" />
    <glyph glyph-name="hbar" unicode="&#x127;" horiz-adv-x="1187" 
d="M897 0v559q0 151 -72.5 231t-199.5 80q-93 0 -160.5 -51t-103 -143t-35.5 -215h-51q0 156 42.5 270.5t126 177t207.5 62.5q110 0 190.5 -49t124.5 -141.5t44 -221.5v-559h-113zM210 0v1360h116v-1360h-116zM59 1084v88h446v-88h-446z" />
    <glyph glyph-name="Imacron" unicode="&#x12a;" horiz-adv-x="536" 
d="M210 0v1235h116v-1235h-116zM72.6924 1553h390.044v-98h-390.044v98z" />
    <glyph glyph-name="imacron" unicode="&#x12b;" horiz-adv-x="566" 
d="M215 0v950h116v-950h-116zM76.6924 1266h390.044v-98h-390.044v98z" />
    <glyph glyph-name="Iogonek" unicode="&#x12e;" horiz-adv-x="536" 
d="M210 0v1235h116v-1235h-116zM448 -335q-61 -36 -130 -55t-131 -19q-94 0 -148.5 43.5t-54.5 117.5q0 83 70 159.5t210 127.5l61 -39q-116 -51 -183.5 -106t-67.5 -118q0 -48 38 -71.5t94 -23.5q47 0 99 16t113 50z" />
    <glyph glyph-name="iogonek" unicode="&#x12f;" horiz-adv-x="566" 
d="M215 0v950h116v-950h-116zM195.755 1229.66q0 35.3213 26.001 62.793q26 27.4717 64.2646 27.4717q39.2451 0 66.7168 -27.4717q27.4727 -27.4717 27.4727 -62.793q0 -36.3027 -27.4727 -61.8115q-27.4717 -25.5098 -66.7168 -25.5098q-38.2646 0 -64.2646 25.5098
q-26.001 25.5088 -26.001 61.8115zM453 -335q-61 -36 -130 -55t-131 -19q-94 0 -148.5 43.5t-54.5 117.5q0 83 70 159.5t210 127.5l61 -39q-116 -51 -183.5 -106t-67.5 -118q0 -48 38 -71.5t94 -23.5q47 0 99 16t113 50z" />
    <glyph glyph-name="Idotaccent" unicode="&#x130;" horiz-adv-x="536" 
d="M210 0v1235h116v-1235h-116zM191.755 1515.66q0 35.3213 26.001 62.793q26 27.4717 64.2646 27.4717q39.2451 0 66.7168 -27.4717q27.4727 -27.4717 27.4727 -62.793q0 -36.3027 -27.4727 -61.8115q-27.4717 -25.5098 -66.7168 -25.5098q-38.2646 0 -64.2646 25.5098
q-26.001 25.5088 -26.001 61.8115z" />
    <glyph glyph-name="dotlessi" unicode="&#x131;" horiz-adv-x="566" 
d="M215 0v950h116v-950h-116z" />
    <glyph glyph-name="uni0136" unicode="&#x136;" horiz-adv-x="1169" 
d="M918 1235h162l-775 -801v169zM522 708l591 -708h-154l-523 632zM210 1235h118v-1235h-118v1235zM537 -434l-79 40q55 26 90.5 57.5t47.5 80.5q-36 1 -59.5 21.5t-20.5 55.5q2 32 25.5 54.5t59.5 22.5q40 0 69.5 -31t27.5 -86q-2 -53 -41 -114t-120 -101z" />
    <glyph glyph-name="uni0137" unicode="&#x137;" horiz-adv-x="1099" 
d="M210 0v1360h116v-1360h-116zM306 521l524 428h167l-691 -555v127zM874 0l-464 597l125 15l483 -612h-144zM503 -434l-79 40q55 26 90.5 57.5t47.5 80.5q-36 1 -59.5 21.5t-20.5 55.5q2 32 25.5 54.5t59.5 22.5q40 0 69.5 -31t27.5 -86q-2 -53 -41 -114t-120 -101z" />
    <glyph glyph-name="Lacute" unicode="&#x139;" horiz-adv-x="909" 
d="M326 1235v-1134h573v-101h-689v1235h116zM405 1408l-60 48l317 341l85 -70z" />
    <glyph glyph-name="lacute" unicode="&#x13a;" horiz-adv-x="536" 
d="M210 0v1360h116v-1360h-116zM211 1536l-60 48l317 341l85 -70z" />
    <glyph glyph-name="uni013B" unicode="&#x13b;" horiz-adv-x="909" 
d="M326 1235v-1134h573v-101h-689v1235h116zM408 -434l-79 40q55 26 90.5 57.5t47.5 80.5q-36 1 -59.5 21.5t-20.5 55.5q2 32 25.5 54.5t59.5 22.5q40 0 69.5 -31t27.5 -86q-2 -53 -41 -114t-120 -101z" />
    <glyph glyph-name="uni013C" unicode="&#x13c;" horiz-adv-x="536" 
d="M210 0v1360h116v-1360h-116zM221 -434l-79 40q55 26 90.5 57.5t47.5 80.5q-36 1 -59.5 21.5t-20.5 55.5q2 32 25.5 54.5t59.5 22.5q40 0 69.5 -31t27.5 -86q-2 -53 -41 -114t-120 -101z" />
    <glyph glyph-name="Lcaron" unicode="&#x13d;" horiz-adv-x="909" 
d="M326 1235v-1134h573v-101h-689v1235h116zM463 1389l-298 313l72 56l246 -272h-40l248 272l70 -56z" />
    <glyph glyph-name="lcaron" unicode="&#x13e;" horiz-adv-x="536" 
d="M210 0v1360h116v-1360h-116zM269 1517l-298 313l72 56l246 -272h-40l248 272l70 -56z" />
    <glyph glyph-name="Lslash" unicode="&#x141;" horiz-adv-x="909" 
d="M70 633l-18 98l459 79l18 -97zM326 1235v-1134h573v-101h-689v1235h116z" />
    <glyph glyph-name="lslash" unicode="&#x142;" horiz-adv-x="536" 
d="M67 731l-17 84l460 80l15 -84zM210 0v1360h116v-1360h-116z" />
    <glyph glyph-name="Nacute" unicode="&#x143;" horiz-adv-x="1335" 
d="M209 1235h150l662 -1088h-12v1088h116v-1235h-141l-676 1111h17v-1111h-116v1235zM611 1408l-60 48l317 341l85 -70z" />
    <glyph glyph-name="nacute" unicode="&#x144;" horiz-adv-x="1187" 
d="M897 0v559q0 151 -72.5 231t-199.5 80q-93 0 -160.5 -51t-103 -143t-35.5 -215h-51q0 156 42.5 270.5t126 177t207.5 62.5q110 0 190.5 -49t124.5 -141.5t44 -221.5v-559h-113zM210 0v949h98l18 -234v-715h-116zM571 1138l-60 48l317 341l85 -70z" />
    <glyph glyph-name="uni0145" unicode="&#x145;" horiz-adv-x="1335" 
d="M209 1235h150l662 -1088h-12v1088h116v-1235h-141l-676 1111h17v-1111h-116v1235zM620 -434l-79 40q55 26 90.5 57.5t47.5 80.5q-36 1 -59.5 21.5t-20.5 55.5q2 32 25.5 54.5t59.5 22.5q40 0 69.5 -31t27.5 -86q-2 -53 -41 -114t-120 -101z" />
    <glyph glyph-name="uni0146" unicode="&#x146;" horiz-adv-x="1187" 
d="M897 0v559q0 151 -72.5 231t-199.5 80q-93 0 -160.5 -51t-103 -143t-35.5 -215h-51q0 156 42.5 270.5t126 177t207.5 62.5q110 0 190.5 -49t124.5 -141.5t44 -221.5v-559h-113zM210 0v949h98l18 -234v-715h-116zM547 -434l-79 40q55 26 90.5 57.5t47.5 80.5
q-36 1 -59.5 21.5t-20.5 55.5q2 32 25.5 54.5t59.5 22.5q40 0 69.5 -31t27.5 -86q-2 -53 -41 -114t-120 -101z" />
    <glyph glyph-name="Ncaron" unicode="&#x147;" horiz-adv-x="1335" 
d="M209 1235h150l662 -1088h-12v1088h116v-1235h-141l-676 1111h17v-1111h-116v1235zM669 1389l-298 313l72 56l246 -272h-40l248 272l70 -56z" />
    <glyph glyph-name="ncaron" unicode="&#x148;" horiz-adv-x="1187" 
d="M897 0v559q0 151 -72.5 231t-199.5 80q-93 0 -160.5 -51t-103 -143t-35.5 -215h-51q0 156 42.5 270.5t126 177t207.5 62.5q110 0 190.5 -49t124.5 -141.5t44 -221.5v-559h-113zM210 0v949h98l18 -234v-715h-116zM629 1119l-298 313l72 56l246 -272h-40l248 272l70 -56z
" />
    <glyph glyph-name="Eng" unicode="&#x14a;" horiz-adv-x="1335" 
d="M836 -487q-65 0 -129.5 19t-133.5 61l11 102q62 -36 119 -58.5t120 -22.5q89 0 140.5 60t51.5 181l-2 352h112v-353q0 -181 -82 -261t-207 -80zM209 1235h150l662 -1088h-12v1088h116v-1235l-26 -183l-791 1294h17v-1111h-116v1235z" />
    <glyph glyph-name="eng" unicode="&#x14b;" horiz-adv-x="1221" 
d="M721 -487q-65 0 -129 19t-133 61l11 102q62 -36 118.5 -58.5t119.5 -22.5q89 0 139.5 60t50.5 181v681h113v-682q0 -181 -82 -261t-208 -80zM897 0v559q0 151 -72.5 231t-199.5 80q-93 0 -160.5 -51t-103 -143t-35.5 -215h-51q0 156 42.5 270.5t126 177t207.5 62.5
q110 0 190.5 -49t124.5 -141.5t44 -221.5v-559h-113zM210 0v949h98l18 -234v-715h-116z" />
    <glyph glyph-name="Omacron" unicode="&#x14c;" horiz-adv-x="1254" 
d="M628 -22q-148 0 -266 70t-187 211.5t-69 354.5q0 216 69 358.5t187 212.5t266 70q147 0 265 -70.5t187 -213t69 -357.5t-69 -356t-187 -210.5t-265 -69.5zM628 87q186 0 293 133.5t107 395.5q0 258 -107 396.5t-293 138.5q-185 0 -293 -139t-108 -398q0 -261 108 -394
t293 -133zM341 1553h591v-98h-591v98z" />
    <glyph glyph-name="omacron" unicode="&#x14d;" horiz-adv-x="1073" 
d="M538 -22q-127 0 -224 57t-152.5 168t-55.5 272t55.5 271.5t152.5 167.5t224 57t224 -57t152 -167.5t55 -271.5t-55 -272t-152 -168t-224 -57zM536 79q105 0 175 49.5t104.5 138.5t34.5 208q0 179 -76.5 288t-233.5 109q-105 0 -174.5 -49.5t-104 -139t-34.5 -208.5
q0 -178 76.5 -287t232.5 -109zM242 1266h591v-98h-591v98z" />
    <glyph glyph-name="Ohungarumlaut" unicode="&#x150;" horiz-adv-x="1254" 
d="M628 -22q-148 0 -266 70t-187 211.5t-69 354.5q0 216 69 358.5t187 212.5t266 70q147 0 265 -70.5t187 -213t69 -357.5t-69 -356t-187 -210.5t-265 -69.5zM628 87q186 0 293 133.5t107 395.5q0 258 -107 396.5t-293 138.5q-185 0 -293 -139t-108 -398q0 -261 108 -394
t293 -133zM763 1373l-69 8l24 320l100 -13zM545 1377l-70 7l18 321l101 -11z" />
    <glyph glyph-name="ohungarumlaut" unicode="&#x151;" horiz-adv-x="1073" 
d="M538 -22q-127 0 -224 57t-152.5 168t-55.5 272t55.5 271.5t152.5 167.5t224 57t224 -57t152 -167.5t55 -271.5t-55 -272t-152 -168t-224 -57zM536 79q105 0 175 49.5t104.5 138.5t34.5 208q0 179 -76.5 288t-233.5 109q-105 0 -174.5 -49.5t-104 -139t-34.5 -208.5
q0 -178 76.5 -287t232.5 -109zM664 1086l-69 8l24 320l100 -13zM446 1090l-70 7l18 321l101 -11z" />
    <glyph glyph-name="OE" unicode="&#x152;" horiz-adv-x="1735" 
d="M619 -22q-150 0 -265.5 70.5t-181.5 212.5t-66 356t66 356t183.5 212t271.5 70q113 0 201.5 -39t150.5 -130l-75 -39q-57 51 -123.5 77.5t-153.5 26.5q-198 0 -299 -139.5t-101 -398.5t101 -392.5t298 -133.5q97 0 158.5 29.5t121.5 77.5l73 -75q-62 -60 -150 -100.5
t-210 -40.5zM902 0v1235h686v-99h-596l24 27v-515l-24 26h560v-99h-560l24 26v-526l-24 26h596v-101h-686z" />
    <glyph glyph-name="oe" unicode="&#x153;" horiz-adv-x="1683" 
d="M517.387 -22q-120.953 0 -213.336 57q-92.3818 57 -145.239 168q-52.8584 111 -52.8584 272t52.8584 271.5q52.8574 110.5 145.239 167.5q92.3828 57 213.336 57q120.954 0 213.336 -57q92.3828 -57 144.764 -167.5q52.3818 -110.5 52.3818 -271.5t-52.3818 -272
q-52.3809 -111 -144.764 -168q-92.3818 -57 -213.336 -57zM515.482 79q100.001 0 166.669 49.5q66.667 49.5 99.5244 138.5t32.8574 208q0 179 -72.8574 288q-72.8584 109 -222.384 109q-100.001 0 -166.192 -49.5t-99.0488 -139t-32.8574 -208.5q0 -178 72.8574 -287
q72.8584 -109 221.432 -109zM1216.91 -22q-118.097 0 -208.098 63.5t-141.431 175t-51.4297 254.5q0 156 50.9531 268t140.954 172t209.051 60q100.001 0 170.002 -42.5t112.858 -115.5t60.4766 -165t13.8105 -190h-667.628v80h600.008l-43.8105 -30
q2.85742 65 -7.14258 129.5t-37.1436 118.5q-27.1426 54 -75.7148 87t-124.764 33q-97.1445 0 -161.906 -52.5q-64.7637 -52.5 -96.668 -136q-31.9053 -83.5 -31.9053 -178.5v-49q0 -109 31.9053 -196q31.9043 -87 96.1914 -138q64.2861 -51 161.431 -51
q100.001 0 163.335 51.5t75.7148 151.5h118.098q-14.2861 -95 -63.335 -162q-49.0479 -67 -124.287 -102.5t-169.525 -35.5z" />
    <glyph glyph-name="Racute" unicode="&#x154;" horiz-adv-x="1194" 
d="M210 0v1235h417q206 0 309.5 -99.5t103.5 -259.5q0 -159 -103.5 -258.5t-309.5 -99.5h-301v-518h-116zM915 0l-368 551h129l388 -551h-149zM326 604h295q147 0 223.5 74.5t76.5 193.5q0 122 -75.5 193t-218.5 71h-301v-532zM540 1408l-60 48l317 341l85 -70z" />
    <glyph glyph-name="racute" unicode="&#x155;" horiz-adv-x="692" 
d="M210 0v950h116v-950h-116zM283 435q0 178 31 296t96 177t166 59q35 0 64.5 -5t59.5 -16l-13 -113q-29 11 -64 18.5t-61 7.5q-89 0 -140.5 -54t-73.5 -149.5t-22 -220.5h-43zM401 1122l-60 48l317 341l85 -70z" />
    <glyph glyph-name="uni0156" unicode="&#x156;" horiz-adv-x="1194" 
d="M210 0v1235h417q206 0 309.5 -99.5t103.5 -259.5q0 -159 -103.5 -258.5t-309.5 -99.5h-301v-518h-116zM915 0l-368 551h129l388 -551h-149zM326 604h295q147 0 223.5 74.5t76.5 193.5q0 122 -75.5 193t-218.5 71h-301v-532zM550 -434l-79 40q55 26 90.5 57.5t47.5 80.5
q-36 1 -59.5 21.5t-20.5 55.5q2 32 25.5 54.5t59.5 22.5q40 0 69.5 -31t27.5 -86q-2 -53 -41 -114t-120 -101z" />
    <glyph glyph-name="uni0157" unicode="&#x157;" horiz-adv-x="692" 
d="M210 0v950h116v-950h-116zM283 435q0 178 31 296t96 177t166 59q35 0 64.5 -5t59.5 -16l-13 -113q-29 11 -64 18.5t-61 7.5q-89 0 -140.5 -54t-73.5 -149.5t-22 -220.5h-43zM404 -426l-79 40q55 26 90.5 57.5t47.5 80.5q-36 1 -59.5 21.5t-20.5 55.5q2 32 25.5 54.5
t59.5 22.5q40 0 69.5 -31t27.5 -86q-2 -53 -41 -114t-120 -101z" />
    <glyph glyph-name="Rcaron" unicode="&#x158;" horiz-adv-x="1194" 
d="M210 0v1235h417q206 0 309.5 -99.5t103.5 -259.5q0 -159 -103.5 -258.5t-309.5 -99.5h-301v-518h-116zM915 0l-368 551h129l388 -551h-149zM326 604h295q147 0 223.5 74.5t76.5 193.5q0 122 -75.5 193t-218.5 71h-301v-532zM599 1389l-298 313l72 56l246 -272h-40
l248 272l70 -56z" />
    <glyph glyph-name="rcaron" unicode="&#x159;" horiz-adv-x="692" 
d="M210 0v950h116v-950h-116zM283 435q0 178 31 296t96 177t166 59q35 0 64.5 -5t59.5 -16l-13 -113q-29 11 -64 18.5t-61 7.5q-89 0 -140.5 -54t-73.5 -149.5t-22 -220.5h-43zM459 1102l-298 313l72 56l246 -272h-40l248 272l70 -56z" />
    <glyph glyph-name="Sacute" unicode="&#x15a;" horiz-adv-x="1176" 
d="M587 -22q-121 0 -222 44.5t-162 130t-61 208.5h112q0 -94 46 -155t121.5 -90.5t163.5 -29.5q101 0 173 33.5t110.5 87.5t38.5 115q0 88 -53.5 143.5t-154.5 86.5l-205 66q-159 55 -239 124t-80 195q0 140 106 229t305 89q179 0 281.5 -82t118.5 -215h-115
q-16 92 -87.5 141.5t-197.5 49.5q-136 0 -210.5 -61.5t-74.5 -156.5q0 -77 47 -121.5t148 -78.5l248 -80q130 -40 209.5 -118.5t79.5 -208.5q0 -91 -51 -170t-150 -127.5t-245 -48.5zM532 1408l-60 48l317 341l85 -70z" />
    <glyph glyph-name="sacute" unicode="&#x15b;" horiz-adv-x="1049" 
d="M545 -22q-138 0 -227.5 40t-134.5 108t-49 152h116q6 -101 81.5 -152.5t206.5 -51.5q68 0 126 22.5t93.5 62t35.5 89.5q0 64 -47 100t-149 62l-173 52q-125 36 -191 102.5t-66 159.5q0 112 97 179.5t253 67.5q170 0 265 -67t100 -167h-120q-11 71 -73 105.5t-172 34.5
q-109 0 -169 -50t-60 -109q0 -114 196 -167l170 -53q128 -36 195.5 -96t67.5 -154q0 -69 -44.5 -131t-127.5 -100.5t-200 -38.5zM468 1122l-60 48l317 341l85 -70z" />
    <glyph glyph-name="Scedilla" unicode="&#x15e;" horiz-adv-x="1176" 
d="M587 -22q-121 0 -222 44.5t-162 130t-61 208.5h112q0 -94 46 -155t121.5 -90.5t163.5 -29.5q101 0 173 33.5t110.5 87.5t38.5 115q0 88 -53.5 143.5t-154.5 86.5l-205 66q-159 55 -239 124t-80 195q0 140 106 229t305 89q179 0 281.5 -82t118.5 -215h-115
q-16 92 -87.5 141.5t-197.5 49.5q-136 0 -210.5 -61.5t-74.5 -156.5q0 -77 47 -121.5t148 -78.5l248 -80q130 -40 209.5 -118.5t79.5 -208.5q0 -91 -51 -170t-150 -127.5t-245 -48.5zM398 -350l24 57q77 -43 139.5 -49t100 15.5t39.5 58.5q3 38 -30 66t-81.5 47t-94.5 29
l68 171l82 -5l-65 -163l-39 55q87 -22 148.5 -50.5t93 -66t27.5 -87.5q-4 -57 -48 -90.5t-109 -43.5t-133.5 4t-121.5 52z" />
    <glyph glyph-name="scedilla" unicode="&#x15f;" horiz-adv-x="1049" 
d="M545 -22q-138 0 -227.5 40t-134.5 108t-49 152h116q6 -101 81.5 -152.5t206.5 -51.5q68 0 126 22.5t93.5 62t35.5 89.5q0 64 -47 100t-149 62l-173 52q-125 36 -191 102.5t-66 159.5q0 112 97 179.5t253 67.5q170 0 265 -67t100 -167h-120q-11 71 -73 105.5t-172 34.5
q-109 0 -169 -50t-60 -109q0 -114 196 -167l170 -53q128 -36 195.5 -96t67.5 -154q0 -69 -44.5 -131t-127.5 -100.5t-200 -38.5zM344 -349l24 57q77 -43 139.5 -49t100 15.5t39.5 58.5q3 38 -30 66t-81.5 47t-94.5 29l68 171l82 -5l-65 -163l-39 55q87 -22 148.5 -50.5
t93 -66t27.5 -87.5q-4 -57 -48 -90.5t-109 -43.5t-133.5 4t-121.5 52z" />
    <glyph glyph-name="Scaron" unicode="&#x160;" horiz-adv-x="1176" 
d="M587 -22q-121 0 -222 44.5t-162 130t-61 208.5h112q0 -94 46 -155t121.5 -90.5t163.5 -29.5q101 0 173 33.5t110.5 87.5t38.5 115q0 88 -53.5 143.5t-154.5 86.5l-205 66q-159 55 -239 124t-80 195q0 140 106 229t305 89q179 0 281.5 -82t118.5 -215h-115
q-16 92 -87.5 141.5t-197.5 49.5q-136 0 -210.5 -61.5t-74.5 -156.5q0 -77 47 -121.5t148 -78.5l248 -80q130 -40 209.5 -118.5t79.5 -208.5q0 -91 -51 -170t-150 -127.5t-245 -48.5zM590 1389l-298 313l72 56l246 -272h-40l248 272l70 -56z" />
    <glyph glyph-name="scaron" unicode="&#x161;" horiz-adv-x="1049" 
d="M545 -22q-138 0 -227.5 40t-134.5 108t-49 152h116q6 -101 81.5 -152.5t206.5 -51.5q68 0 126 22.5t93.5 62t35.5 89.5q0 64 -47 100t-149 62l-173 52q-125 36 -191 102.5t-66 159.5q0 112 97 179.5t253 67.5q170 0 265 -67t100 -167h-120q-11 71 -73 105.5t-172 34.5
q-109 0 -169 -50t-60 -109q0 -114 196 -167l170 -53q128 -36 195.5 -96t67.5 -154q0 -69 -44.5 -131t-127.5 -100.5t-200 -38.5zM527 1102l-298 313l72 56l246 -272h-40l248 272l70 -56z" />
    <glyph glyph-name="uni0162" unicode="&#x162;" horiz-adv-x="970" 
d="M12 1136v99h947v-99h-443l26 27v-1163h-116v1163l26 -27h-440zM270 -371l24 57q77 -43 139.5 -49t100 15.5t39.5 58.5q3 38 -30 66t-81.5 47t-94.5 29l68 171l82 -5l-65 -163l-39 55q87 -22 148.5 -50.5t93 -66t27.5 -87.5q-4 -57 -48 -90.5t-109 -43.5t-133.5 4
t-121.5 52z" />
    <glyph glyph-name="uni0163" unicode="&#x163;" horiz-adv-x="733" 
d="M487 -22q-74 0 -131.5 29t-90 86t-32.5 141v985h113v-983q0 -162 150 -162q44 0 84 10t90 28l16 -85q-49 -22 -98 -35.5t-101 -13.5zM70 865v84h597v-84h-597zM246 -348l24 57q77 -43 139.5 -49t100 15.5t39.5 58.5q3 38 -30 66t-81.5 47t-94.5 29l68 171l82 -5l-65 -163
l-39 55q87 -22 148.5 -50.5t93 -66t27.5 -87.5q-4 -57 -48 -90.5t-109 -43.5t-133.5 4t-121.5 52z" />
    <glyph glyph-name="Tcaron" unicode="&#x164;" horiz-adv-x="970" 
d="M12 1136v99h947v-99h-443l26 27v-1163h-116v1163l26 -27h-440zM487 1389l-298 313l72 56l246 -272h-40l248 272l70 -56z" />
    <glyph glyph-name="tcaron" unicode="&#x165;" horiz-adv-x="733" 
d="M487 -22q-74 0 -131.5 29t-90 86t-32.5 141v985h113v-983q0 -162 150 -162q44 0 84 10t90 28l16 -85q-49 -22 -98 -35.5t-101 -13.5zM70 865v84h597v-84h-597zM360 1286l-298 313l72 56l246 -272h-40l248 272l70 -56z" />
    <glyph glyph-name="Tbar" unicode="&#x166;" horiz-adv-x="970" 
d="M12 1136v99h947v-99h-443l26 27v-1163h-116v1163l26 -27h-440zM161.941 571.798v94.1758h660.424v-94.1758h-660.424z" />
    <glyph glyph-name="tbar" unicode="&#x167;" horiz-adv-x="733" 
d="M487 -22q-74 0 -131.5 29t-90 86t-32.5 141v985h113v-983q0 -162 150 -162q44 0 84 10t90 28l16 -85q-49 -22 -98 -35.5t-101 -13.5zM70 865v84h597v-84h-597zM86.2949 555.431v86.5439h553.058v-86.5439h-553.058z" />
    <glyph glyph-name="Umacron" unicode="&#x16a;" horiz-adv-x="1269" 
d="M178 1235h116v-799q0 -185 93 -267.5t245 -82.5q150 0 242.5 82.5t92.5 267.5v799h116v-799q0 -155 -56.5 -256.5t-158 -151.5t-236.5 -50t-237.5 50t-159.5 151.5t-57 256.5v799zM339 1553h591v-98h-591v98z" />
    <glyph glyph-name="umacron" unicode="&#x16b;" horiz-adv-x="1190" 
d="M862 950h116v-950h-116v950zM178 950h116v-596q0 -132 64.5 -201.5t186.5 -69.5q100 0 171 54t108.5 145t37.5 201h55q0 -152 -47 -265t-133 -174.5t-204 -61.5q-110 0 -189.5 41t-122.5 122.5t-43 202.5v602zM319 1266h591v-98h-591v98z" />
    <glyph glyph-name="Uring" unicode="&#x16e;" horiz-adv-x="1269" 
d="M178 1235h116v-799q0 -185 93 -267.5t245 -82.5q150 0 242.5 82.5t92.5 267.5v799h116v-799q0 -155 -56.5 -256.5t-158 -151.5t-236.5 -50t-237.5 50t-159.5 151.5t-57 256.5v799zM634 1351q-49 0 -90.5 24.5t-66 66t-24.5 91.5t24.5 91t66 66t91.5 25q49 0 90.5 -25
t66 -66t24.5 -91t-24.5 -91.5t-66 -66t-91.5 -24.5zM634 1440q40 0 66.5 27t26.5 66t-26.5 66t-66.5 27q-38 0 -65 -27t-27 -66t27 -66t65 -27z" />
    <glyph glyph-name="uring" unicode="&#x16f;" horiz-adv-x="1190" 
d="M862 950h116v-950h-116v950zM178 950h116v-596q0 -132 64.5 -201.5t186.5 -69.5q100 0 171 54t108.5 145t37.5 201h55q0 -152 -47 -265t-133 -174.5t-204 -61.5q-110 0 -189.5 41t-122.5 122.5t-43 202.5v602zM614 1064q-49 0 -90.5 24.5t-66 66t-24.5 91.5t24.5 91
t66 66t91.5 25q49 0 90.5 -25t66 -66t24.5 -91t-24.5 -91.5t-66 -66t-91.5 -24.5zM614 1153q40 0 66.5 27t26.5 66t-26.5 66t-66.5 27q-38 0 -65 -27t-27 -66t27 -66t65 -27z" />
    <glyph glyph-name="Uhungarumlaut" unicode="&#x170;" horiz-adv-x="1269" 
d="M178 1235h116v-799q0 -185 93 -267.5t245 -82.5q150 0 242.5 82.5t92.5 267.5v799h116v-799q0 -155 -56.5 -256.5t-158 -151.5t-236.5 -50t-237.5 50t-159.5 151.5t-57 256.5v799zM762 1373l-69 8l24 320l100 -13zM544 1377l-70 7l18 321l101 -11z" />
    <glyph glyph-name="uhungarumlaut" unicode="&#x171;" horiz-adv-x="1190" 
d="M862 950h116v-950h-116v950zM178 950h116v-596q0 -132 64.5 -201.5t186.5 -69.5q100 0 171 54t108.5 145t37.5 201h55q0 -152 -47 -265t-133 -174.5t-204 -61.5q-110 0 -189.5 41t-122.5 122.5t-43 202.5v602zM741 1086l-69 8l24 320l100 -13zM523 1090l-70 7l18 321
l101 -11z" />
    <glyph glyph-name="Uogonek" unicode="&#x172;" horiz-adv-x="1269" 
d="M178 1235h116v-799q0 -185 93 -267.5t245 -82.5q150 0 242.5 82.5t92.5 267.5v799h116v-799q0 -155 -56.5 -256.5t-158 -151.5t-236.5 -50t-237.5 50t-159.5 151.5t-57 256.5v799zM833 -335q-61 -36 -130 -55t-131 -19q-94 0 -148.5 43.5t-54.5 117.5q0 83 70 159.5
t210 127.5l61 -39q-116 -51 -183.5 -106t-67.5 -118q0 -48 38 -71.5t94 -23.5q47 0 99 16t113 50z" />
    <glyph glyph-name="uogonek" unicode="&#x173;" horiz-adv-x="1190" 
d="M862 950h116v-950h-116v950zM178 950h116v-596q0 -132 64.5 -201.5t186.5 -69.5q100 0 171 54t108.5 145t37.5 201h55q0 -152 -47 -265t-133 -174.5t-204 -61.5q-110 0 -189.5 41t-122.5 122.5t-43 202.5v602zM1101 -335q-61 -36 -130 -55t-131 -19q-94 0 -148.5 43.5
t-54.5 117.5q0 83 70 159.5t210 127.5l61 -39q-116 -51 -183.5 -106t-67.5 -118q0 -48 38 -71.5t94 -23.5q47 0 99 16t113 50z" />
    <glyph glyph-name="Wcircumflex" unicode="&#x174;" horiz-adv-x="1735" 
d="M32 1235h132l332 -1132h-39l346 980h79l334 -976h-39l396 1128h128l-443 -1235h-122l-308 895h34l-323 -895h-122zM632 1379l-72 56l298 314l298 -314l-70 -56l-248 265h40z" />
    <glyph glyph-name="wcircumflex" unicode="&#x175;" horiz-adv-x="1415" 
d="M42 949h120l261 -829h-18l258 786h88l255 -788h-15l261 831h116l-311 -949h-112l-249 737h18l-248 -737h-111zM481 1073l-72 56l298 314l298 -314l-70 -56l-248 265h40z" />
    <glyph glyph-name="Ycircumflex" unicode="&#x176;" horiz-adv-x="1059" 
d="M20 1235h142l385 -636h-37l388 636h140l-450 -729v-506h-119v506zM303 1359l-72 56l298 314l298 -314l-70 -56l-248 265h40z" />
    <glyph glyph-name="ycircumflex" unicode="&#x177;" horiz-adv-x="893" 
d="M47 949h127l339 -848h-33l252 848h120l-354 -1149q-39 -130 -109.5 -208.5t-186.5 -78.5q-60 0 -112 19t-108 54v112q52 -45 101 -64.5t103 -19.5q67 0 109.5 44t70 111t47.5 134l27 97zM220 1073l-72 56l298 314l298 -314l-70 -56l-248 265h40z" />
    <glyph glyph-name="Ydieresis" unicode="&#x178;" horiz-adv-x="1059" 
d="M20 1235h142l385 -636h-37l388 636h140l-450 -729v-506h-119v506zM683 1425q-36 0 -61 23.5t-25 57.5q0 35 25 60.5t61 25.5q37 0 62.5 -25.5t25.5 -60.5q0 -34 -25.5 -57.5t-62.5 -23.5zM374 1425q-37 0 -61.5 23.5t-24.5 56.5q0 36 24.5 60.5t61.5 24.5t62.5 -24.5
t25.5 -60.5q0 -33 -25.5 -56.5t-62.5 -23.5z" />
    <glyph glyph-name="Zacute" unicode="&#x179;" horiz-adv-x="1146" 
d="M146 0v108l778 1058v-44l-778 8v105h892v-109l-765 -1037l-15 24l780 -8v-105h-892zM553 1408l-60 48l317 341l85 -70z" />
    <glyph glyph-name="zacute" unicode="&#x17a;" horiz-adv-x="929" 
d="M102 0v93l594 762h-594v94h728v-94l-590 -762h590v-93h-728zM408 1122l-60 48l317 341l85 -70z" />
    <glyph glyph-name="Zdotaccent" unicode="&#x17b;" horiz-adv-x="1146" 
d="M146 0v108l778 1058v-44l-778 8v105h892v-109l-765 -1037l-15 24l780 -8v-105h-892zM533.755 1515.66q0 35.3213 26.001 62.793q26 27.4717 64.2646 27.4717q39.2451 0 66.7168 -27.4717q27.4727 -27.4717 27.4727 -62.793q0 -36.3027 -27.4727 -61.8115
q-27.4717 -25.5098 -66.7168 -25.5098q-38.2646 0 -64.2646 25.5098q-26.001 25.5088 -26.001 61.8115z" />
    <glyph glyph-name="zdotaccent" unicode="&#x17c;" horiz-adv-x="929" 
d="M102 0v93l594 762h-594v94h728v-94l-590 -762h590v-93h-728zM388.755 1229.66q0 35.3213 26.001 62.793q26 27.4717 64.2646 27.4717q39.2451 0 66.7168 -27.4717q27.4727 -27.4717 27.4727 -62.793q0 -36.3027 -27.4727 -61.8115q-27.4717 -25.5098 -66.7168 -25.5098
q-38.2646 0 -64.2646 25.5098q-26.001 25.5088 -26.001 61.8115z" />
    <glyph glyph-name="Zcaron" unicode="&#x17d;" horiz-adv-x="1146" 
d="M146 0v108l778 1058v-44l-778 8v105h892v-109l-765 -1037l-15 24l780 -8v-105h-892zM612 1389l-298 313l72 56l246 -272h-40l248 272l70 -56z" />
    <glyph glyph-name="zcaron" unicode="&#x17e;" horiz-adv-x="929" 
d="M102 0v93l594 762h-594v94h728v-94l-590 -762h590v-93h-728zM466 1102l-298 313l72 56l246 -272h-40l248 272l70 -56z" />
    <glyph glyph-name="florin" unicode="&#x192;" horiz-adv-x="636" 
d="M10 865l6 84h485l-6 -84h-485zM-182 -390l28 95q31 -13 61.5 -19t58.5 -6q34 0 70.5 12.5t62.5 49.5t32 107l87 1263q7 90 45 148t99 85.5t136 27.5q36 0 73.5 -5.5t75.5 -18.5l-29 -95q-31 13 -61.5 19.5t-58.5 6.5q-34 0 -70 -13t-62.5 -49t-32.5 -107l-87 -1263
q-7 -90 -45 -148t-99 -86t-136 -28q-36 0 -73.5 6t-74.5 18z" />
    <glyph glyph-name="uni0218" unicode="&#x218;" horiz-adv-x="1176" 
d="M587 -22q-121 0 -222 44.5t-162 130t-61 208.5h112q0 -94 46 -155t121.5 -90.5t163.5 -29.5q101 0 173 33.5t110.5 87.5t38.5 115q0 88 -53.5 143.5t-154.5 86.5l-205 66q-159 55 -239 124t-80 195q0 140 106 229t305 89q179 0 281.5 -82t118.5 -215h-115
q-16 92 -87.5 141.5t-197.5 49.5q-136 0 -210.5 -61.5t-74.5 -156.5q0 -77 47 -121.5t148 -78.5l248 -80q130 -40 209.5 -118.5t79.5 -208.5q0 -91 -51 -170t-150 -127.5t-245 -48.5zM543 -434l-79 40q55 26 90.5 57.5t47.5 80.5q-36 1 -59.5 21.5t-20.5 55.5
q2 32 25.5 54.5t59.5 22.5q40 0 69.5 -31t27.5 -86q-2 -53 -41 -114t-120 -101z" />
    <glyph glyph-name="uni0219" unicode="&#x219;" horiz-adv-x="1049" 
d="M545 -22q-138 0 -227.5 40t-134.5 108t-49 152h116q6 -101 81.5 -152.5t206.5 -51.5q68 0 126 22.5t93.5 62t35.5 89.5q0 64 -47 100t-149 62l-173 52q-125 36 -191 102.5t-66 159.5q0 112 97 179.5t253 67.5q170 0 265 -67t100 -167h-120q-11 71 -73 105.5t-172 34.5
q-109 0 -169 -50t-60 -109q0 -114 196 -167l170 -53q128 -36 195.5 -96t67.5 -154q0 -69 -44.5 -131t-127.5 -100.5t-200 -38.5zM489 -433l-79 40q55 26 90.5 57.5t47.5 80.5q-36 1 -59.5 21.5t-20.5 55.5q2 32 25.5 54.5t59.5 22.5q40 0 69.5 -31t27.5 -86q-2 -53 -41 -114
t-120 -101z" />
    <glyph glyph-name="uni021A" unicode="&#x21a;" horiz-adv-x="970" 
d="M12 1136v99h947v-99h-443l26 27v-1163h-116v1163l26 -27h-440zM414 -455l-79 40q55 26 90.5 57.5t47.5 80.5q-36 1 -59.5 21.5t-20.5 55.5q2 32 25.5 54.5t59.5 22.5q40 0 69.5 -31t27.5 -86q-2 -53 -41 -114t-120 -101z" />
    <glyph glyph-name="uni021B" unicode="&#x21b;" horiz-adv-x="733" 
d="M487 -22q-74 0 -131.5 29t-90 86t-32.5 141v985h113v-983q0 -162 150 -162q44 0 84 10t90 28l16 -85q-49 -22 -98 -35.5t-101 -13.5zM70 865v84h597v-84h-597zM390 -432l-79 40q55 26 90.5 57.5t47.5 80.5q-36 1 -59.5 21.5t-20.5 55.5q2 32 25.5 54.5t59.5 22.5
q40 0 69.5 -31t27.5 -86q-2 -53 -41 -114t-120 -101z" />
    <glyph glyph-name="uni0237" unicode="&#x237;" horiz-adv-x="606" 
d="M80 -487q-65 0 -129 19t-133 61l10 102q63 -36 119.5 -58.5t119.5 -22.5q89 0 139 60t50 181v1098h113v-1099q0 -181 -81.5 -261t-207.5 -80z" />
    <glyph glyph-name="apostrophe" unicode="&#x2bc;" horiz-adv-x="312" 
d="M162 876l-90 43q52 26 86 57.5t44 80.5q-37 2 -63 23.5t-26 57.5q0 33 24 57.5t63 24.5q48 0 80 -36t32 -88q0 -61 -36.5 -121t-113.5 -99z" />
    <glyph glyph-name="circumflex" unicode="&#x2c6;" horiz-adv-x="806" 
d="M178 1085l-72 56l298 314l298 -314l-70 -56l-248 265h40z" />
    <glyph glyph-name="caron" unicode="&#x2c7;" horiz-adv-x="806" 
d="M404 1102l-298 313l72 56l246 -272h-40l248 272l70 -56z" />
    <glyph glyph-name="breve" unicode="&#x2d8;" horiz-adv-x="728" 
d="M365 1148q-117 0 -188 66t-71 160h102q0 -67 43.5 -105t113.5 -38q71 0 114 38t43 105h102q0 -94 -71 -160t-188 -66z" />
    <glyph glyph-name="dotaccent" unicode="&#x2d9;" horiz-adv-x="396" 
d="M105.755 1231.66q0 35.3213 26.001 62.793q26 27.4717 64.2646 27.4717q39.2451 0 66.7168 -27.4717q27.4727 -27.4717 27.4727 -62.793q0 -36.3027 -27.4727 -61.8115q-27.4717 -25.5098 -66.7168 -25.5098q-38.2646 0 -64.2646 25.5098
q-26.001 25.5088 -26.001 61.8115z" />
    <glyph glyph-name="ring" unicode="&#x2da;" horiz-adv-x="574" 
d="M287 1325q-49 0 -90.5 24.5t-66 66t-24.5 91.5t24.5 91t66 66t91.5 25q49 0 90.5 -25t66 -66t24.5 -91t-24.5 -91.5t-66 -66t-91.5 -24.5zM287 1414q40 0 66.5 27t26.5 66t-26.5 66t-66.5 27q-38 0 -65 -27t-27 -66t27 -66t65 -27z" />
    <glyph glyph-name="ogonek" unicode="&#x2db;" horiz-adv-x="675" 
d="M570 -357q-61 -36 -130 -55t-131 -19q-94 0 -148.5 43.5t-54.5 117.5q0 83 70 159.5t210 127.5l61 -39q-116 -51 -183.5 -106t-67.5 -118q0 -48 38 -71.5t94 -23.5q47 0 99 16t113 50z" />
    <glyph glyph-name="tilde" unicode="&#x2dc;" horiz-adv-x="809" 
d="M155 1113l-49 33q24 90 65.5 135.5t94.5 45.5q24 0 51.5 -9t94.5 -44t90 -44.5t45 -9.5q29 0 57 25.5t49 81.5l52 -36q-16 -58 -40 -98t-53.5 -60t-61.5 -20q-27 0 -59.5 12t-101.5 47q-59 31 -80.5 39t-42.5 8q-31 0 -59 -23.5t-52 -82.5z" />
    <glyph glyph-name="hungarumlaut" unicode="&#x2dd;" horiz-adv-x="553" 
d="M394 1086l-69 8l24 320l100 -13zM176 1090l-70 7l18 321l101 -11z" />
    <glyph glyph-name="gravecomb" unicode="&#x300;" horiz-adv-x="0" 
d="M442 1129l-342 319l85 70l317 -341z" />
    <glyph glyph-name="acutecomb" unicode="&#x301;" horiz-adv-x="0" 
d="M166 1129l-60 48l317 341l85 -70z" />
    <glyph glyph-name="uni0302" unicode="&#x302;" horiz-adv-x="0" 
d="M178 1085l-72 56l298 314l298 -314l-70 -56l-248 265h40z" />
    <glyph glyph-name="tildecomb" unicode="&#x303;" horiz-adv-x="0" 
d="M95 1113l-49 33q24 90 65.5 135.5t94.5 45.5q24 0 51.5 -9t94.5 -44t90 -44.5t45 -9.5q29 0 57 25.5t49 81.5l52 -36q-16 -58 -40 -98t-53.5 -60t-61.5 -20q-27 0 -59.5 12t-101.5 47q-59 31 -80.5 39t-42.5 8q-31 0 -59 -23.5t-52 -82.5z" />
    <glyph glyph-name="uni0304" unicode="&#x304;" horiz-adv-x="0" 
d="M295 1266h591v-98h-591v98z" />
    <glyph glyph-name="uni0306" unicode="&#x306;" horiz-adv-x="0" 
d="M365 1148q-117 0 -188 66t-71 160h102q0 -67 43.5 -105t113.5 -38q71 0 114 38t43 105h102q0 -94 -71 -160t-188 -66z" />
    <glyph glyph-name="uni0307" unicode="&#x307;" horiz-adv-x="0" 
d="M105.755 1231.66q0 35.3213 26.001 62.793q26 27.4717 64.2646 27.4717q39.2451 0 66.7168 -27.4717q27.4727 -27.4717 27.4727 -62.793q0 -36.3027 -27.4727 -61.8115q-27.4717 -25.5098 -66.7168 -25.5098q-38.2646 0 -64.2646 25.5098
q-26.001 25.5088 -26.001 61.8115z" />
    <glyph glyph-name="uni0308" unicode="&#x308;" horiz-adv-x="0" 
d="M501 1138q-36 0 -61 23.5t-25 57.5q0 35 25 60.5t61 25.5q37 0 62.5 -25.5t25.5 -60.5q0 -34 -25.5 -57.5t-62.5 -23.5zM192 1138q-37 0 -61.5 23.5t-24.5 56.5q0 36 24.5 60.5t61.5 24.5t62.5 -24.5t25.5 -60.5q0 -33 -25.5 -56.5t-62.5 -23.5z" />
    <glyph glyph-name="uni030A" unicode="&#x30a;" horiz-adv-x="0" 
d="M287 1325q-49 0 -90.5 24.5t-66 66t-24.5 91.5t24.5 91t66 66t91.5 25q49 0 90.5 -25t66 -66t24.5 -91t-24.5 -91.5t-66 -66t-91.5 -24.5zM287 1414q40 0 66.5 27t26.5 66t-26.5 66t-66.5 27q-38 0 -65 -27t-27 -66t27 -66t65 -27z" />
    <glyph glyph-name="uni030B" unicode="&#x30b;" horiz-adv-x="0" 
d="M394 1086l-69 8l24 320l100 -13zM176 1090l-70 7l18 321l101 -11z" />
    <glyph glyph-name="uni030C" unicode="&#x30c;" horiz-adv-x="0" 
d="M404 1102l-298 313l72 56l246 -272h-40l248 272l70 -56z" />
    <glyph glyph-name="uni0312" unicode="&#x312;" horiz-adv-x="0" 
d="M267 1372l79 -40q-55 -26 -90.5 -57.5t-47.5 -80.5q36 -1 59.5 -21.5t20.5 -55.5q-2 -32 -25.5 -54.5t-59.5 -22.5q-40 0 -69.5 31t-27.5 86q2 53 41 114t120 101z" />
    <glyph glyph-name="uni0326" unicode="&#x326;" horiz-adv-x="0" 
d="M185 -434l-79 40q55 26 90.5 57.5t47.5 80.5q-36 1 -59.5 21.5t-20.5 55.5q2 32 25.5 54.5t59.5 22.5q40 0 69.5 -31t27.5 -86q-2 -53 -41 -114t-120 -101z" />
    <glyph glyph-name="uni0327" unicode="&#x327;" horiz-adv-x="0" 
d="M106 -350l24 57q77 -43 139.5 -49t100 15.5t39.5 58.5q3 38 -30 66t-81.5 47t-94.5 29l68 171l82 -5l-65 -163l-39 55q87 -22 148.5 -50.5t93 -66t27.5 -87.5q-4 -57 -48 -90.5t-109 -43.5t-133.5 4t-121.5 52z" />
    <glyph glyph-name="uni0328" unicode="&#x328;" horiz-adv-x="0" 
d="M570 -357q-61 -36 -130 -55t-131 -19q-94 0 -148.5 43.5t-54.5 117.5q0 83 70 159.5t210 127.5l61 -39q-116 -51 -183.5 -106t-67.5 -118q0 -48 38 -71.5t94 -23.5q47 0 99 16t113 50z" />
    <glyph glyph-name="uni0394" unicode="&#x394;" horiz-adv-x="1098" 
d="M56 0l427 1235h137l421 -1235h-122l-370 1091l-372 -1091h-121zM136 0v99h833v-99h-833z" />
    <glyph glyph-name="uni03A9" unicode="&#x3a9;" horiz-adv-x="1254" 
d="M528 20q-73 0 -147.5 37t-136.5 110.5t-100 185t-38 261.5q0 216 69 358.5t187 212.5t266 70q147 0 265 -70.5t187 -213t69 -357.5q0 -151 -38 -262.5t-100.5 -185t-137 -110t-148.5 -36.5v68q76 0 145 62.5t113.5 180t44.5 285.5q0 258 -107 396.5t-293 138.5
q-185 0 -293 -139t-108 -398q0 -167 44.5 -284t114 -179.5t142.5 -62.5v-68zM106 -1v89h422v-89h-422zM725 -1v89h424v-89h-424z" />
    <glyph glyph-name="uni03BC" unicode="&#x3bc;" horiz-adv-x="1190" 
d="M862 950h116v-950h-116v950zM178 950h116v-596q0 -132 64.5 -201.5t186.5 -69.5q100 0 171 54t108.5 145t37.5 201h55q0 -152 -47 -265t-133 -174.5t-204 -61.5q-110 0 -189.5 41t-122.5 122.5t-43 202.5v602zM178 -410v1360h116v-1360h-116z" />
    <glyph glyph-name="pi" unicode="&#x3c0;" horiz-adv-x="1215" 
d="M1084 -16q-92 0 -166 40.5t-117 124.5t-43 213v588h113v-588q0 -150 69 -213.5t171 -63.5zM328 0v949h116v-949h-116zM63 851v99h1110v-99h-1110z" />
    <glyph glyph-name="Wgrave" unicode="&#x1e80;" horiz-adv-x="1735" 
d="M32 1235h132l332 -1132h-39l346 980h79l334 -976h-39l396 1128h128l-443 -1235h-122l-308 895h34l-323 -895h-122zM1006 1436l-342 319l85 70l317 -341z" />
    <glyph glyph-name="wgrave" unicode="&#x1e81;" horiz-adv-x="1415" 
d="M42 949h120l261 -829h-18l258 786h88l255 -788h-15l261 831h116l-311 -949h-112l-249 737h18l-248 -737h-111zM854 1129l-342 319l85 70l317 -341z" />
    <glyph glyph-name="Wacute" unicode="&#x1e82;" horiz-adv-x="1735" 
d="M32 1235h132l332 -1132h-39l346 980h79l334 -976h-39l396 1128h128l-443 -1235h-122l-308 895h34l-323 -895h-122zM802 1428l-60 48l317 341l85 -70z" />
    <glyph glyph-name="wacute" unicode="&#x1e83;" horiz-adv-x="1415" 
d="M42 949h120l261 -829h-18l258 786h88l255 -788h-15l261 831h116l-311 -949h-112l-249 737h18l-248 -737h-111zM651 1122l-60 48l317 341l85 -70z" />
    <glyph glyph-name="Wdieresis" unicode="&#x1e84;" horiz-adv-x="1735" 
d="M32 1235h132l332 -1132h-39l346 980h79l334 -976h-39l396 1128h128l-443 -1235h-122l-308 895h34l-323 -895h-122zM1013 1445q-36 0 -61 23.5t-25 57.5q0 35 25 60.5t61 25.5q37 0 62.5 -25.5t25.5 -60.5q0 -34 -25.5 -57.5t-62.5 -23.5zM704 1445q-37 0 -61.5 23.5
t-24.5 56.5q0 36 24.5 60.5t61.5 24.5t62.5 -24.5t25.5 -60.5q0 -33 -25.5 -56.5t-62.5 -23.5z" />
    <glyph glyph-name="wdieresis" unicode="&#x1e85;" horiz-adv-x="1415" 
d="M42 949h120l261 -829h-18l258 786h88l255 -788h-15l261 831h116l-311 -949h-112l-249 737h18l-248 -737h-111zM861 1138q-36 0 -61 23.5t-25 57.5q0 35 25 60.5t61 25.5q37 0 62.5 -25.5t25.5 -60.5q0 -34 -25.5 -57.5t-62.5 -23.5zM552 1138q-37 0 -61.5 23.5
t-24.5 56.5q0 36 24.5 60.5t61.5 24.5t62.5 -24.5t25.5 -60.5q0 -33 -25.5 -56.5t-62.5 -23.5z" />
    <glyph glyph-name="uni1E9E" unicode="&#x1e9e;" horiz-adv-x="1192" 
d="M928 1076q0 -75 -29.5 -125t-68.5 -85.5t-69 -68t-30 -73.5q0 -42 33.5 -73.5t82.5 -62.5t98 -70t82 -96t33 -141q0 -87 -40 -156t-109 -108.5t-156 -39.5q-57 0 -130.5 17t-129.5 45l4 108q53 -40 118.5 -61t122.5 -21q70 0 114 28.5t64 74t20 94.5q0 70 -32.5 119
t-80 86.5t-95.5 71.5t-80.5 74.5t-32.5 95.5t30 94t70 75t70.5 79.5t30.5 108.5q0 80 -60 138.5t-180 58.5q-123 0 -188 -76.5t-65 -255.5v-931h-115v933q0 131 41.5 226t125.5 146.5t212 51.5q117 0 192 -39.5t111 -103.5t36 -138z" />
    <glyph glyph-name="Ygrave" unicode="&#x1ef2;" horiz-adv-x="1059" 
d="M20 1235h142l385 -636h-37l388 636h140l-450 -729v-506h-119v506zM677 1416l-342 319l85 70l317 -341z" />
    <glyph glyph-name="ygrave" unicode="&#x1ef3;" horiz-adv-x="893" 
d="M47 949h127l339 -848h-33l252 848h120l-354 -1149q-39 -130 -109.5 -208.5t-186.5 -78.5q-60 0 -112 19t-108 54v112q52 -45 101 -64.5t103 -19.5q67 0 109.5 44t70 111t47.5 134l27 97zM594 1129l-342 319l85 70l317 -341z" />
    <glyph glyph-name="endash" unicode="&#x2013;" horiz-adv-x="892" 
d="M110 521v101h674v-101h-674z" />
    <glyph glyph-name="emdash" unicode="&#x2014;" horiz-adv-x="1406" 
d="M110 521v101h1189v-101h-1189z" />
    <glyph glyph-name="quoteleft" unicode="&#x2018;" horiz-adv-x="366" 
d="M184 878q-31 0 -56.5 16.5t-40.5 46t-15 66.5q0 59 38.5 119t115.5 100l86 -44q-52 -27 -86.5 -61t-45.5 -80q42 -2 66.5 -21.5t24.5 -55.5q0 -34 -23 -60t-64 -26z" />
    <glyph glyph-name="quoteright" unicode="&#x2019;" horiz-adv-x="366" 
d="M102 878l-86 44q52 27 86 60.5t43 77.5q-38 2 -64.5 24t-26.5 58q0 35 25.5 59.5t66.5 24.5q33 0 57.5 -17t37.5 -46t13 -66q0 -58 -38 -117t-114 -102z" />
    <glyph glyph-name="quotesinglbase" unicode="&#x201a;" horiz-adv-x="425" 
d="M162 -191l-90 43q52 26 86 57.5t44 80.5q-37 2 -63 23.5t-26 57.5q0 33 24 57.5t63 24.5q48 0 80 -36t32 -88q0 -61 -36.5 -121t-113.5 -99z" />
    <glyph glyph-name="quotedblleft" unicode="&#x201c;" horiz-adv-x="713" 
d="M473 878q-31 0 -56.5 16.5t-40.5 46t-15 66.5q0 59 38.5 119t115.5 100l86 -44q-52 -27 -86.5 -61t-45.5 -80q42 -2 66.5 -21.5t24.5 -55.5q0 -34 -23 -60t-64 -26zM184 878q-31 0 -56.5 16.5t-40.5 46t-15 66.5q0 59 38.5 119t115.5 100l86 -44q-52 -27 -86.5 -61
t-45.5 -80q42 -2 66.5 -21.5t24.5 -55.5q0 -34 -23 -60t-64 -26z" />
    <glyph glyph-name="quotedblright" unicode="&#x201d;" horiz-adv-x="706" 
d="M441 878l-86 44q52 27 86 60.5t43 77.5q-38 2 -64.5 24t-26.5 58q0 35 25.5 59.5t66.5 24.5q33 0 57.5 -17t37.5 -46t13 -66q0 -58 -38 -117t-114 -102zM158 878l-86 44q52 27 86 60.5t43 77.5q-38 2 -64.5 24t-26.5 58q0 35 25.5 59.5t66.5 24.5q33 0 57.5 -17t37.5 -46
t13 -66q0 -58 -38 -117t-114 -102z" />
    <glyph glyph-name="quotedblbase" unicode="&#x201e;" horiz-adv-x="792" 
d="M529 -191l-90 43q52 26 86 57.5t44 80.5q-37 2 -63 23.5t-26 57.5q0 33 24 57.5t63 24.5q48 0 80 -36t32 -88q0 -61 -36.5 -121t-113.5 -99zM162 -191l-90 43q52 26 86 57.5t44 80.5q-37 2 -63 23.5t-26 57.5q0 33 24 57.5t63 24.5q48 0 80 -36t32 -88q0 -61 -36.5 -121
t-113.5 -99z" />
    <glyph glyph-name="dagger" unicode="&#x2020;" horiz-adv-x="977" 
d="M440 -252l-15 1487h127l-18 -1487h-94zM79 787v68l409 14l409 -14v-68l-409 -16z" />
    <glyph glyph-name="daggerdbl" unicode="&#x2021;" horiz-adv-x="977" 
d="M440 -252l-15 1487h127l-18 -1487h-94zM79 787v68l409 14l409 -14v-68l-409 -16zM79 478v68l409 14l409 -14v-68l-409 -16z" />
    <glyph glyph-name="bullet" unicode="&#x2022;" horiz-adv-x="484" 
d="M61.3135 476.646q0 65.626 48.3086 116.668q48.3076 51.042 119.402 51.042q72.917 0 123.959 -51.042q51.043 -51.042 51.043 -116.668q0 -67.4482 -51.043 -114.845q-51.042 -47.3965 -123.959 -47.3965q-71.0947 0 -119.402 47.3965
q-48.3086 47.3965 -48.3086 114.845z" />
    <glyph glyph-name="ellipsis" unicode="&#x2026;" horiz-adv-x="967" 
d="M66 71q0 36 26.5 64t65.5 28q40 0 68 -28t28 -64q0 -37 -28 -63t-68 -26q-39 0 -65.5 26t-26.5 63zM398 71q0 36 26.5 64t65.5 28q40 0 68 -28t28 -64q0 -37 -28 -63t-68 -26q-39 0 -65.5 26t-26.5 63zM713 71q0 36 26.5 64t65.5 28q40 0 68 -28t28 -64q0 -37 -28 -63
t-68 -26q-39 0 -65.5 26t-26.5 63z" />
    <glyph glyph-name="perthousand" unicode="&#x2030;" horiz-adv-x="2250" 
d="M388 578q-128 0 -205 97t-77 289t77 288t205 96q127 0 205 -96t78 -288t-78 -289t-205 -97zM388 642q105 0 157 85t52 237q0 151 -52 235.5t-157 84.5q-103 0 -156 -84.5t-53 -235.5q0 -152 53 -237t156 -85zM1187 -22q-128 0 -205 97t-77 289t77 288t205 96
q127 0 205 -96t78 -288t-78 -289t-205 -97zM1187 42q105 0 157 85t52 237q0 151 -52 235.5t-157 84.5q-103 0 -156 -84.5t-53 -235.5q0 -152 53 -237t156 -85zM1863 -22q-128 0 -205 97t-77 289t77 288t205 96q127 0 205 -96t78 -288t-78 -289t-205 -97zM1863 42
q105 0 157 85t52 237q0 151 -52 235.5t-157 84.5q-103 0 -156 -84.5t-53 -235.5q0 -152 53 -237t156 -85zM272.188 -12.6211l940.843 1346.65h91.124l-943.905 -1346.65h-88.0615z" />
    <glyph glyph-name="guilsinglleft" unicode="&#x2039;" horiz-adv-x="714" 
d="M216 499l394 402l-97 52l-407 -428l407 -427l97 52l-394 402v-53z" />
    <glyph glyph-name="guilsinglright" unicode="&#x203a;" horiz-adv-x="714" 
d="M202 98l-96 52l393 402v-53l-393 402l96 52l408 -428z" />
    <glyph glyph-name="fraction" unicode="&#x2044;" horiz-adv-x="534" 
d="M-254.812 -12.6211l940.843 1346.65h91.124l-943.905 -1346.65h-88.0615z" />
    <glyph glyph-name="uni2070" unicode="&#x2070;" horiz-adv-x="797" 
d="M397.75 457.25q-88.75 0 -154.375 44.375t-101.875 133.438t-36.25 222.188t36.25 221.562t101.875 132.5t154.375 44.0625t154.375 -44.0625t102.188 -132.5t36.5625 -221.562t-36.5625 -222.188t-102.188 -133.438t-154.375 -44.375zM397.75 524.75
q108.125 0 162.812 87.1875t54.6875 245.312t-54.6875 245t-162.812 86.875q-106.25 0 -161.562 -86.875t-55.3125 -245t55.3125 -245.312t161.562 -87.1875z" />
    <glyph glyph-name="uni2074" unicode="&#x2074;" horiz-adv-x="693" 
d="M450.318 1255.03h63.2539v-507.838h128.917v-58.4336h-128.917v-189.762h-68.6758v189.762h-389.161v54.8193zM446.704 1138.16l-307.232 -394.583h307.232v394.583z" />
    <glyph glyph-name="uni2075" unicode="&#x2075;" horiz-adv-x="776" 
d="M385.727 477.747q-65.0605 0 -121.688 24.3975q-56.6279 24.3984 -91.2666 71.6875q-34.6387 47.29 -34.6387 116.568h68.6748q0 -72.29 52.1094 -109.941t126.809 -37.6514q89.1582 0 138.255 53.3145q49.0967 53.3135 49.0967 131.628q0 158.436 -201.207 158.436
h-184.34l30.7236 348.8h394.583v-63.2539h-337.956l15.0605 28.3135l-26.5059 -279.521l-12.0488 9.63867q28.916 6.62695 64.1572 9.03613q35.2422 2.40918 64.1582 2.40918q123.495 0 195.183 -53.0117q71.6875 -53.0137 71.6875 -160.846q0 -71.085 -31.3252 -127.713
q-31.3262 -56.627 -90.0615 -89.459q-58.7354 -32.8311 -139.46 -32.8311z" />
    <glyph glyph-name="uni2076" unicode="&#x2076;" horiz-adv-x="760" 
d="M392.004 485.747q-87.3496 0 -151.508 49.3975q-64.1572 49.3984 -99.3984 133.737q-35.2412 84.3379 -35.2412 189.159q0 123.495 35.8438 212.652q35.8438 89.1582 103.615 136.749q67.7725 47.5908 162.954 47.5908q62.6514 0 109.941 -24.0967
q47.2891 -24.0967 76.8076 -66.8682t36.748 -99.3984h-77.7119q-10.2412 57.832 -44.5791 92.1699q-34.3379 34.3369 -100.001 34.3369q-109.038 0 -170.484 -93.374q-61.4463 -93.375 -61.4463 -255.425q0 -24.6992 1.20508 -57.832q1.2041 -33.1328 5.4209 -61.4463
q3.0127 83.1328 34.3379 131.025q31.3262 47.8916 79.2178 68.0732q47.8926 20.1807 102.11 20.1807q66.2656 0 119.881 -29.2168q53.6152 -29.2178 85.2422 -81.0254t31.627 -119.881q0 -67.4707 -31.0244 -118.677q-31.0244 -51.2051 -85.8447 -79.5186t-127.713 -28.3135
zM392.004 550.808q74.7002 0 122.291 43.6758q47.5908 43.6748 47.5908 118.375q0 76.5068 -47.5908 119.881t-122.291 43.374q-48.7949 0 -87.0488 -21.6875q-38.2539 -21.6865 -60.2422 -58.4346q-21.9883 -36.7471 -21.9883 -83.1328q0 -74.7002 47.8926 -118.375
q47.8926 -43.6758 121.387 -43.6758z" />
    <glyph glyph-name="uni2077" unicode="&#x2077;" horiz-adv-x="582" 
d="M99.1211 491l365.065 678.924h-416.271v65.0615h498.801v-62.0498l-355.426 -681.936h-92.1699z" />
    <glyph glyph-name="uni2078" unicode="&#x2078;" horiz-adv-x="813" 
d="M406.245 485.747q-83.1338 0 -149.098 27.7109q-65.9648 27.7109 -103.616 75.9043q-37.6504 48.1934 -37.6504 109.64q0 58.4346 29.8193 100.303t82.5312 64.1572q52.7109 22.29 120.182 22.29q13.2529 0 26.8076 -0.904297q13.5547 -0.90332 27.4102 -3.91504
v-24.0967q-64.459 0 -112.652 -21.9883t-74.6992 -56.9287q-26.5068 -34.9404 -26.5068 -75.3018q0 -49.3984 28.3135 -83.1338q28.3145 -33.7354 77.7119 -51.2051q49.3984 -17.4707 111.447 -17.4707q99.3994 0 158.135 34.9404t58.7354 91.5674
q0 46.3857 -31.9277 75.6035q-31.9277 29.2168 -87.3506 48.4941l-201.207 76.5068q-36.748 13.8555 -74.0977 37.9531q-37.3496 24.0957 -62.6514 60.2412t-25.3018 85.543q0 54.8203 31.9287 98.7969q31.9277 43.9766 91.5674 69.2773q59.6387 25.3018 142.17 25.3018
q77.7119 0 136.749 -26.5059q59.0371 -26.5068 92.1699 -72.29q33.1328 -45.7842 33.1328 -103.616q0 -48.1934 -23.1934 -88.8564t-68.9766 -65.3623t-113.856 -24.6992q-13.2539 0 -25.6035 1.20508q-12.3486 1.20508 -26.8076 5.42188v24.6992q53.6152 0 95.4834 18.373
q41.8682 18.374 65.9648 51.2061q24.0967 32.8311 24.0967 75.6035q0 40.3613 -23.7959 72.29q-23.7949 31.9277 -66.2656 50.3018q-42.4697 18.373 -99.0977 18.373q-54.8193 0 -97.8926 -18.0723t-68.0732 -47.8916q-25 -29.8203 -25 -65.9648
q0 -45.7842 31.0244 -72.5918t84.6396 -46.6875l197.593 -74.6992q81.9287 -30.1211 125.604 -72.5908q43.6758 -42.4707 43.6758 -113.556q0 -56.6279 -34.6396 -100.303q-34.6387 -43.6758 -99.6992 -68.374q-65.0615 -24.6992 -157.231 -24.6992z" />
    <glyph glyph-name="uni2079" unicode="&#x2079;" horiz-adv-x="780" 
d="M391.342 485.747q-71.6875 0 -126.81 30.4219q-55.1211 30.4219 -86.1455 83.4346t-31.0244 119.881h72.29q1.20508 -77.1094 45.7842 -122.893q44.5791 -45.7842 124.7 -45.7842q74.0977 0 120.182 42.7715q46.085 42.7725 68.0732 121.086
q21.9883 78.3145 21.9883 185.545q0 26.5059 -1.2041 48.1934q-1.20508 21.6865 -5.42188 50q-6.02441 -64.458 -34.3379 -108.736q-28.3135 -44.2773 -74.7002 -67.1689q-46.3857 -22.8916 -106.628 -22.8916q-64.458 0 -117.471 29.8193t-84.6396 81.9287t-31.627 118.978
q0 68.6758 30.4219 118.978t85.543 78.0127t128.014 27.7109q62.6514 0 115.062 -25.6025t90.3633 -74.0977q37.9521 -48.4941 59.0361 -116.267q21.085 -67.7715 21.085 -152.712q0 -122.894 -29.8193 -212.653q-29.8203 -89.7607 -92.1699 -138.857
q-62.3506 -49.0967 -160.544 -49.0967zM387.727 865.872q48.7959 0 87.3506 21.9883t60.8447 58.7354q22.2891 36.748 22.2891 81.9287q0 75.3018 -48.7959 119.278t-121.086 43.9766q-75.3018 0 -123.194 -43.9766q-47.8916 -43.9766 -47.8916 -119.278t47.8916 -118.978
q47.8926 -43.6748 122.592 -43.6748z" />
    <glyph glyph-name="uni2080" unicode="&#x2080;" horiz-adv-x="797" 
d="M398 -23q-133 0 -212.5 100.5t-79.5 300.5q0 199 79.5 298.5t212.5 99.5t213.5 -99.5t80.5 -298.5q0 -200 -80.5 -300.5t-213.5 -100.5zM398 45q109 0 163.5 87.5t54.5 245.5t-54.5 245t-163.5 87q-106 0 -161 -87t-55 -245t55 -245.5t161 -87.5z" />
    <glyph glyph-name="uni2081" unicode="&#x2081;" horiz-adv-x="507" 
d="M236 745h60v-745h-70v664q-28 -22 -60 -34.5t-64 -13.5v69q36 6 70.5 20t63.5 40z" />
    <glyph glyph-name="uni2082" unicode="&#x2082;" horiz-adv-x="794" 
d="M132 0v101q0 98 48.5 147.5t122.5 79.5l144 58q61 25 91.5 64.5t30.5 99.5q0 65 -43.5 104.5t-120.5 39.5q-78 0 -126 -31.5t-55 -94.5h-79q6 59 38 101t88 64.5t133 22.5q70 0 124.5 -27.5t86.5 -75t32 -109.5q0 -86 -47.5 -138.5t-119.5 -83.5l-149 -61
q-63 -24 -96 -60t-33 -93v-43h436v-65h-506z" />
    <glyph glyph-name="uni2083" unicode="&#x2083;" horiz-adv-x="791" 
d="M394 -22q-73 0 -137 27t-103.5 80t-39.5 130h70q1 -86 62.5 -129.5t147.5 -43.5q89 0 138 45t49 111q0 64 -47 105t-159 41h-77v57h42q98 0 154.5 37.5t56.5 104.5q0 59 -44.5 99.5t-125.5 40.5q-60 0 -106.5 -24.5t-66.5 -92.5h-69q15 99 82.5 140t159.5 41
q106 0 175.5 -56.5t69.5 -143.5q0 -60 -34.5 -101.5t-99.5 -64.5q72 -19 119 -65.5t47 -121.5q0 -94 -70 -155t-194 -61z" />
    <glyph glyph-name="uni2084" unicode="&#x2084;" horiz-adv-x="693" 
d="M451 756h63v-508h129v-59h-129v-189h-69v189h-389v56zM448 639l-308 -394h308v394z" />
    <glyph glyph-name="uni2085" unicode="&#x2085;" horiz-adv-x="776" 
d="M386 -22q-66 0 -122.5 24.5t-91 71.5t-34.5 116h68q0 -72 52.5 -110t127.5 -38q89 0 138 53.5t49 132.5q0 158 -201 158h-184l30 349h395v-63h-338l15 28l-26 -279l-13 9q29 7 64.5 9.5t63.5 2.5q124 0 195.5 -53t71.5 -161q0 -71 -31 -127.5t-89.5 -89.5t-139.5 -33z
" />
    <glyph glyph-name="uni2086" unicode="&#x2086;" horiz-adv-x="760" 
d="M393 -22q-87 0 -151.5 49t-100 133.5t-35.5 189.5q0 185 80 291t223 106q93 0 152.5 -52.5t70.5 -138.5h-78q-10 59 -44 93t-100 34q-109 0 -170.5 -93.5t-61.5 -254.5q0 -26 1 -59t5 -61q4 83 35 131t79.5 68t102.5 20q99 0 167.5 -64t68.5 -166q0 -101 -68 -163.5
t-176 -62.5zM393 42q74 0 122 44t48 119q0 77 -48 120t-122 43t-122 -46.5t-48 -116.5q0 -75 48 -119t122 -44z" />
    <glyph glyph-name="uni2087" unicode="&#x2087;" horiz-adv-x="582" 
d="M99 0l365 679h-416v65h499v-62l-356 -682h-92z" />
    <glyph glyph-name="uni2088" unicode="&#x2088;" horiz-adv-x="813" 
d="M407 -22q-125 0 -208 60.5t-83 152.5q0 88 66 137.5t167 49.5q12 0 26 -1t28 -4v-24q-97 0 -155.5 -47t-58.5 -107q0 -75 62 -114t156 -39q99 0 157.5 35t58.5 92q0 47 -31.5 76t-87.5 48l-201 77q-37 14 -74.5 38t-62.5 60t-25 86q0 82 71 137.5t195 55.5
q77 0 136 -26.5t92.5 -72t33.5 -104.5q0 -71 -52 -125t-154 -54q-13 0 -25.5 1.5t-27.5 5.5v25q81 0 133.5 40.5t52.5 104.5q0 60 -52 100.5t-137 40.5q-83 0 -137.5 -39t-54.5 -93q0 -46 31.5 -73t84.5 -46l197 -75q82 -30 126.5 -72.5t44.5 -113.5q0 -85 -77 -139
t-215 -54z" />
    <glyph glyph-name="uni2089" unicode="&#x2089;" horiz-adv-x="780" 
d="M392 -22q-72 0 -127 30.5t-86 83.5t-31 120h72q1 -78 45.5 -124t125.5 -46q111 0 160.5 94.5t49.5 255.5q0 26 -1 48t-6 50q-9 -96 -67 -147.5t-149 -51.5q-96 0 -164.5 65.5t-68.5 165.5q0 103 67 164t177 61q84 0 148 -45t100.5 -127.5t36.5 -195.5
q0 -184 -67.5 -292.5t-214.5 -108.5zM388 358q73 0 122 47t49 116q0 75 -49 119t-121 44q-75 0 -123 -44t-48 -119q0 -76 48 -119.5t122 -43.5z" />
    <glyph glyph-name="uni20A8" unicode="&#x20a8;" horiz-adv-x="1138" 
d="M193 1157v78h782v-78h-782zM193 862v80h782v-80h-782zM193 575h74l648 -575h-165l-557 495v80zM235 575h72q185 0 273.5 85t88.5 209q0 125 -88.5 206.5t-273.5 81.5h-72v58h72q167 0 275 -45.5t160 -123.5t52 -177q0 -101 -48.5 -186t-155.5 -136.5t-283 -51.5h-72v80z
" />
    <glyph glyph-name="Euro" unicode="&#x20ac;" horiz-adv-x="1206" 
d="M661 -22q-160 0 -275.5 84.5t-177.5 231t-62 334.5q0 204 69.5 343.5t186.5 211.5t259 72q183 0 301 -96t170 -249l-126 -28q-42 125 -135.5 197.5t-209.5 72.5q-101 0 -190 -59.5t-144.5 -176.5t-55.5 -288q0 -153 42.5 -276.5t129.5 -196t218 -72.5q154 0 249.5 86
t95.5 229h129q0 -130 -61.5 -224t-169 -145t-243.5 -51zM58 488v80h671v-80h-671zM58 681v80h671v-80h-671z" />
    <glyph glyph-name="trademark" unicode="&#x2122;" horiz-adv-x="1319" 
d="M6 1519v49h474v-49h-221l12 13v-582h-58v582l14 -13h-221zM590 1568h84l232 -453h-7l233 453h81v-618h-59v564h12l-243 -481h-40l-243 478h8v-561h-58v618z" />
    <glyph glyph-name="oneeighth" unicode="&#x215b;" horiz-adv-x="1853" 
d="M237 1345h59v-745h-70v664q-28 -23 -60 -35t-64 -13v69q36 6 70.5 20t64.5 40zM252.188 -12.6211l940.843 1346.65h91.124l-943.905 -1346.65h-88.0615zM1448 -22q-125 0 -207.5 60.5t-82.5 152.5q0 88 65.5 137.5t166.5 49.5q13 0 26.5 -0.5t27.5 -4.5v-24
q-97 0 -155.5 -47t-58.5 -107q0 -75 62.5 -114t155.5 -39q99 0 158 35.5t59 92.5q0 46 -32 75t-87 48l-201 77q-37 14 -75 38t-63 60t-25 86q0 82 71 138t195 56q78 0 137 -27t92 -72.5t33 -104.5q0 -71 -52 -124.5t-154 -53.5q-13 0 -25.5 1.5t-26.5 4.5v25
q80 0 132.5 40.5t52.5 105.5q0 60 -52 100.5t-137 40.5q-82 0 -137 -39t-55 -93q0 -46 31.5 -73t85.5 -47l197 -75q82 -30 126 -72.5t44 -112.5q0 -85 -77.5 -139.5t-214.5 -54.5z" />
    <glyph glyph-name="threeeighths" unicode="&#x215c;" horiz-adv-x="2136" 
d="M393 578q-72 0 -136 27t-103.5 80.5t-39.5 129.5h69q1 -86 63 -129.5t147 -43.5q90 0 139 45t49 111q0 64 -47 105.5t-160 41.5h-76v56h42q98 0 154 37.5t56 104.5q0 59 -44.5 100t-124.5 41q-60 0 -107 -25t-66 -92h-69q15 98 82.5 139.5t159.5 41.5q105 0 175 -56.5
t70 -144.5q0 -59 -35 -100.5t-99 -65.5q72 -19 118.5 -65t46.5 -121q0 -94 -70 -155.5t-194 -61.5zM535.188 -12.6211l940.843 1346.65h91.124l-943.905 -1346.65h-88.0615zM1731 -22q-125 0 -207.5 60.5t-82.5 152.5q0 88 65.5 137.5t166.5 49.5q13 0 26.5 -0.5t27.5 -4.5
v-24q-97 0 -155.5 -47t-58.5 -107q0 -75 62.5 -114t155.5 -39q99 0 158 35.5t59 92.5q0 46 -32 75t-87 48l-201 77q-37 14 -75 38t-63 60t-25 86q0 82 71 138t195 56q78 0 137 -27t92 -72.5t33 -104.5q0 -71 -52 -124.5t-154 -53.5q-13 0 -25.5 1.5t-26.5 4.5v25
q80 0 132.5 40.5t52.5 105.5q0 60 -52 100.5t-137 40.5q-82 0 -137 -39t-55 -93q0 -46 31.5 -73t85.5 -47l197 -75q82 -30 126 -72.5t44 -112.5q0 -85 -77.5 -139.5t-214.5 -54.5z" />
    <glyph glyph-name="fiveeighths" unicode="&#x215d;" horiz-adv-x="2122" 
d="M385 578q-65 0 -121.5 24.5t-91 72t-34.5 115.5h68q0 -72 52.5 -110t126.5 -38q90 0 139 53.5t49 132.5q0 158 -201 158h-184l31 349h393v-63h-337l15 28l-27 -279l-12 9q29 7 64.5 9.5t63.5 2.5q124 0 195.5 -53t71.5 -161q0 -71 -31.5 -127.5t-89.5 -89.5t-140 -33z
M521.188 -12.6211l940.843 1346.65h91.124l-943.905 -1346.65h-88.0615zM1716 -22q-125 0 -207.5 60.5t-82.5 152.5q0 88 65.5 137.5t166.5 49.5q13 0 26.5 -0.5t27.5 -4.5v-24q-97 0 -155.5 -47t-58.5 -107q0 -75 62.5 -114t155.5 -39q99 0 158 35.5t59 92.5q0 46 -32 75
t-87 48l-201 77q-37 14 -75 38t-63 60t-25 86q0 82 71 138t195 56q78 0 137 -27t92 -72.5t33 -104.5q0 -71 -52 -124.5t-154 -53.5q-13 0 -25.5 1.5t-26.5 4.5v25q80 0 132.5 40.5t52.5 105.5q0 60 -52 100.5t-137 40.5q-82 0 -137 -39t-55 -93q0 -46 31.5 -73t85.5 -47
l197 -75q82 -30 126 -72.5t44 -112.5q0 -85 -77.5 -139.5t-214.5 -54.5z" />
    <glyph glyph-name="seveneighths" unicode="&#x215e;" horiz-adv-x="1928" 
d="M99 600l365 679h-416v65h499v-62l-356 -682h-92zM327.188 -12.6211l940.843 1346.65h91.124l-943.905 -1346.65h-88.0615zM1522 -22q-125 0 -207.5 60.5t-82.5 152.5q0 88 65.5 137.5t166.5 49.5q13 0 26.5 -0.5t27.5 -4.5v-24q-97 0 -155.5 -47t-58.5 -107
q0 -75 62.5 -114t155.5 -39q99 0 158 35.5t59 92.5q0 46 -32 75t-87 48l-201 77q-37 14 -75 38t-63 60t-25 86q0 82 71 138t195 56q78 0 137 -27t92 -72.5t33 -104.5q0 -71 -52 -124.5t-154 -53.5q-13 0 -25.5 1.5t-26.5 4.5v25q80 0 132.5 40.5t52.5 105.5q0 60 -52 100.5
t-137 40.5q-82 0 -137 -39t-55 -93q0 -46 31.5 -73t85.5 -47l197 -75q82 -30 126 -72.5t44 -112.5q0 -85 -77.5 -139.5t-214.5 -54.5z" />
    <glyph glyph-name="partialdiff" unicode="&#x2202;" horiz-adv-x="1082" 
d="M546 -22q-114 0 -209.5 61.5t-153 174t-57.5 265.5q0 152 56.5 262t150 170t203.5 60q105 0 190 -54.5t135 -155.5t51 -241h-52q-1 121 -47.5 198t-116 114.5t-142.5 37.5q-83 0 -153 -47t-112 -134.5t-42 -212.5q0 -123 41.5 -211.5t111.5 -136t158 -47.5q94 0 158 54
t99 149.5t43 217.5q10 170 -19 325.5t-88 288.5t-141 236t-178 169l81 77q92 -65 175 -170t147.5 -237.5t102 -283t37.5 -306.5q0 -140 -31 -254.5t-88 -197t-135.5 -127t-174.5 -44.5z" />
    <glyph glyph-name="emptyset" unicode="&#x2205;" 
d="M601 190q-102 0 -185.5 50t-133.5 133.5t-50 184.5q0 103 50 186t133.5 133t185.5 50t185.5 -50t133 -133t49.5 -186q0 -101 -49.5 -184.5t-133 -133.5t-185.5 -50zM601 272q79 0 143.5 39t103.5 104t39 144t-39 143.5t-103.5 103.5t-143.5 39t-144 -39t-104 -103.5
t-39 -143.5t39 -144t104 -104t144 -39zM1001 1013l53 -55l-853 -855l-55 54z" />
    <glyph glyph-name="product" unicode="&#x220f;" horiz-adv-x="1316" 
d="M210 -468v1703h895v-1703h-114v1653l42 -46h-751l42 46v-1653h-114z" />
    <glyph glyph-name="summation" unicode="&#x2211;" horiz-adv-x="1106" 
d="M549 383l-443 756v96h895v-96h-850l43 46l479 -802h-124zM549 383h124l-479 -802l-43 46h850v-96h-895v96z" />
    <glyph glyph-name="minus" unicode="&#x2212;" horiz-adv-x="1037" 
d="M36 545h965v-98h-965v98z" />
    <glyph glyph-name="DivisionSlash" unicode="&#x2215;" horiz-adv-x="534" 
d="M-254.812 -12.6211l940.843 1346.65h91.124l-943.905 -1346.65h-88.0615z" />
    <glyph glyph-name="radical" unicode="&#x221a;" horiz-adv-x="1098" 
d="M477 1l-177 446l39 -36l-306 -45l-23 71l390 74l158 -412h-41l459 1582h112l-507 -1680h-104z" />
    <glyph glyph-name="infinity" unicode="&#x221e;" horiz-adv-x="1355" 
d="M364 190q-79 0 -150 31t-114.5 97t-43.5 168q0 103 43.5 168.5t114.5 96.5t150 31q61 0 124 -20.5t116 -70t83 -137.5h-20q30 88 83 137.5t116 70t124 20.5q80 0 150 -31t114 -96.5t44 -168.5q0 -102 -44 -168t-114 -97t-150 -31q-61 0 -124 20.5t-115.5 70t-82.5 137.5
h20q-30 -88 -83.5 -137.5t-116.5 -70t-124 -20.5zM378 265q95 0 169.5 59t115.5 182v-40q-41 122 -115.5 181.5t-169.5 59.5q-61 0 -113 -24.5t-83.5 -73.5t-31.5 -123t31.5 -123t83.5 -73.5t113 -24.5zM976 265q62 0 113.5 24.5t83 73.5t31.5 123t-31.5 123t-83 73.5
t-113.5 24.5q-95 0 -169.5 -59.5t-115.5 -181.5v40q41 -123 115.5 -182t169.5 -59z" />
    <glyph glyph-name="integral" unicode="&#x222b;" horiz-adv-x="942" 
d="M56 -390l29 95q31 -13 61.5 -19t58.5 -6q33 0 69 12.5t63 49.5t32 107l88 1263q6 90 44 148t99 85.5t136 27.5q37 0 74 -5.5t75 -18.5l-29 -95q-31 13 -61.5 19.5t-58.5 6.5q-34 0 -70 -13t-62.5 -49t-31.5 -107l-88 -1263q-6 -90 -44 -148t-99.5 -86t-135.5 -28
q-36 0 -74 6t-75 18z" />
    <glyph glyph-name="approxequal" unicode="&#x2248;" horiz-adv-x="974" 
d="M172 493l-65 33q33 99 82 145t111 46q31 0 70.5 -13t116.5 -43t114 -42t65 -12q42 0 76 26t63 89l61 -40q-32 -97 -83.5 -141t-112.5 -44q-33 0 -76.5 13.5t-118.5 41.5q-53 21 -86.5 33t-55 17.5t-37.5 5.5q-36 0 -66.5 -24.5t-57.5 -90.5zM172 182l-65 34q33 98 82 144
t111 46q31 0 70.5 -12.5t116.5 -42.5t114 -42.5t65 -12.5q42 0 76 26.5t63 88.5l61 -39q-32 -98 -83.5 -141.5t-112.5 -43.5q-33 0 -76.5 13t-118.5 42q-53 20 -86.5 32.5t-55 17.5t-37.5 5q-36 0 -66.5 -24.5t-57.5 -90.5z" />
    <glyph glyph-name="notequal" unicode="&#x2260;" horiz-adv-x="956" 
d="M158 354h639v-99h-639v99zM158 720h639v-102h-639v102zM280 115l297 758h89l-298 -758h-88z" />
    <glyph glyph-name="lessequal" unicode="&#x2264;" horiz-adv-x="956" 
d="M767 250l-596 250v89l596 249l37 -88l-562 -228v42l562 -220zM152 0v91h639v-91h-639z" />
    <glyph glyph-name="greaterequal" unicode="&#x2265;" horiz-adv-x="956" 
d="M190 250l-39 94l562 220v-42l-562 228l39 88l594 -249v-89zM164 0v91h639v-91h-639z" />
    <glyph glyph-name="lozenge" unicode="&#x25ca;" horiz-adv-x="955" 
d="M106 618l329 617h88l327 -617l-327 -618h-88zM226 595v45l266 -524h-26l263 524v-45l-263 524h26z" />
    <glyph glyph-name="approxequal.tf" 
d="M286 493l-65 33q33 99 82 145t111 46q31 0 70.5 -13t116.5 -43t114 -42t65 -12q42 0 76 26t63 89l61 -40q-32 -97 -83.5 -141t-112.5 -44q-33 0 -76.5 13.5t-118.5 41.5q-53 21 -86.5 33t-55 17.5t-37.5 5.5q-36 0 -66.5 -24.5t-57.5 -90.5zM286 182l-65 34q33 98 82 144
t111 46q31 0 70.5 -12.5t116.5 -42.5t114 -42.5t65 -12.5q42 0 76 26.5t63 88.5l61 -39q-32 -98 -83.5 -141.5t-112.5 -43.5q-33 0 -76.5 13t-118.5 42q-53 20 -86.5 32.5t-55 17.5t-37.5 5q-36 0 -66.5 -24.5t-57.5 -90.5z" />
    <glyph glyph-name="asciicircum.tf" 
d="M228 517l329 638h88l327 -638h-133l-259 539h42l-261 -539h-133z" />
    <glyph glyph-name="asciitilde.tf" 
d="M280 465l-66 35q32 98 82.5 145.5t110.5 47.5q33 0 74 -12.5t121 -43.5q85 -35 122.5 -45t64.5 -10q38 0 72.5 29t58.5 87l65 -41q-33 -100 -86 -144t-118 -44q-29 0 -74 13t-121 43q-83 34 -119.5 45t-64.5 11q-33 0 -64 -25t-58 -91z" />
    <glyph glyph-name="cent.tf" 
d="M575 -207v213h104v-213h-104zM575 943v183h104v-183h-104zM626 -22q-111 0 -208 61t-156.5 173t-59.5 265q0 155 59.5 265.5t156.5 169.5t208 59q74 0 134.5 -21.5t107 -60t79.5 -89t51 -108.5l-121 -18q-29 92 -95 144t-158 52q-78 0 -146.5 -45t-111.5 -132.5
t-43 -215.5q0 -116 38.5 -205.5t106.5 -140t156 -50.5q121 0 187 60t66 169h121q0 -98 -47 -173t-131 -117t-194 -42z" />
    <glyph glyph-name="currency.tf" 
d="M600 231q-110 0 -200 53.5t-143.5 144.5t-53.5 202q0 108 53.5 197.5t143.5 143t200 53.5t199.5 -53.5t142.5 -143t53 -197.5q0 -111 -53 -202t-142.5 -144.5t-199.5 -53.5zM600 345q77 0 141.5 38.5t103 103t38.5 144.5q0 78 -38.5 141.5t-103 101t-141.5 37.5
q-78 0 -142.5 -37.5t-102.5 -101t-38 -141.5q0 -80 38 -144.5t102.5 -103t142.5 -38.5zM866 827l-70 70l179 176l70 -68zM331 830l-176 173l68 70l176 -173zM869 429l176 -173l-68 -73l-176 176zM331 429l68 -70l-176 -176l-68 73z" />
    <glyph glyph-name="divide.tf" 
d="M269 456v100h659v-100h-659zM598 171q-36 0 -60.5 24.5t-24.5 57.5t24.5 59t60.5 26q37 0 61.5 -26t24.5 -59t-24.5 -57.5t-61.5 -24.5zM598 674q-36 0 -60.5 23.5t-24.5 58.5q0 34 24.5 58t60.5 24q37 0 61.5 -24t24.5 -58q0 -35 -24.5 -58.5t-61.5 -23.5z" />
    <glyph glyph-name="dollar.tf" 
d="M601 -22q-92 0 -174.5 25t-146 74t-99.5 120.5t-36 163.5h115q0 -94 46.5 -155t124 -90.5t171.5 -29.5q103 0 175 34t109.5 89t37.5 116q0 84 -52.5 141t-145.5 85l-123 39v108l163 -51q127 -40 207 -117.5t80 -207.5q0 -85 -50 -163.5t-150.5 -129.5t-251.5 -51z
M553 -172v1571h98v-1571h-98zM592 592l-80 26q-163 56 -246 124.5t-83 194.5q0 140 108.5 229t315.5 89q178 0 281 -82.5t122 -214.5h-115q-15 92 -90 143t-199 51q-143 0 -221 -62t-78 -158q0 -77 46 -123t142 -76l97 -32v-109z" />
    <glyph glyph-name="eight.dnom" horiz-adv-x="812" 
d="M406 -22q-125 0 -207.5 60.5t-82.5 152.5q0 88 65.5 137.5t166.5 49.5q13 0 26.5 -0.5t27.5 -4.5v-24q-97 0 -155.5 -47t-58.5 -107q0 -75 62.5 -114t155.5 -39q99 0 158 35.5t59 92.5q0 46 -32 75t-87 48l-201 77q-37 14 -75 38t-63 60t-25 86q0 82 71 138t195 56
q78 0 137 -27t92 -72.5t33 -104.5q0 -71 -52 -124.5t-154 -53.5q-13 0 -25.5 1.5t-26.5 4.5v25q80 0 132.5 40.5t52.5 105.5q0 60 -52 100.5t-137 40.5q-82 0 -137 -39t-55 -93q0 -46 31.5 -73t85.5 -47l197 -75q82 -30 126 -72.5t44 -112.5q0 -85 -77.5 -139.5
t-214.5 -54.5z" />
    <glyph glyph-name="eight.numr" horiz-adv-x="812" 
d="M406 578q-125 0 -207.5 60.5t-82.5 152.5q0 88 65.5 137.5t166.5 49.5q13 0 26.5 -0.5t27.5 -4.5v-24q-97 0 -155.5 -47t-58.5 -107q0 -75 62.5 -114t155.5 -39q99 0 158 35.5t59 92.5q0 46 -32 75t-87 48l-201 77q-37 14 -75 38t-63 60t-25 86q0 82 71 138t195 56
q78 0 137 -27t92 -72.5t33 -104.5q0 -71 -52 -124.5t-154 -53.5q-13 0 -25.5 1.5t-26.5 4.5v25q80 0 132.5 40.5t52.5 105.5q0 60 -52 100.5t-137 40.5q-82 0 -137 -39t-55 -93q0 -46 31.5 -73t85.5 -47l197 -75q82 -30 126 -72.5t44 -112.5q0 -85 -77.5 -139.5
t-214.5 -54.5z" />
    <glyph glyph-name="eight.tf" 
d="M598 -22q-137 0 -246 46t-172.5 126t-63.5 182q0 97 50.5 166.5t137.5 106.5t198 37q24 0 45.5 -1.5t44.5 -6.5v-40q-106 0 -185 -36.5t-123 -94.5t-44 -125q0 -82 46 -138t127.5 -85t184.5 -29q165 0 264 58t99 152q0 77 -54.5 124.5t-143.5 81.5l-337 127
q-61 23 -123 63.5t-104 100t-42 141.5q0 91 53 164t152 115t236 42q129 0 227.5 -44t154.5 -120t56 -172q0 -80 -38.5 -147.5t-115.5 -108.5t-191 -41q-22 0 -42 2t-42 9v41q87 0 156 30.5t109 85t40 125.5q0 67 -39.5 120t-110 83.5t-164.5 30.5q-91 0 -163 -30t-113 -79.5
t-41 -109.5q0 -76 52 -120.5t140 -77.5l331 -124q136 -50 207 -120.5t71 -188.5q0 -94 -57.5 -166.5t-165.5 -113.5t-261 -41z" />
    <glyph glyph-name="equal.tf" 
d="M279 354h642v-99h-642v99zM279 720h642v-102h-642v102z" />
    <glyph glyph-name="Euro.tf" 
d="M658 -22q-160 0 -275 84t-176.5 231t-61.5 336q0 203 69 342.5t185 211.5t256 72q179 0 295 -96t166 -249l-126 -28q-41 125 -133.5 197.5t-201.5 72.5q-98 0 -186 -59.5t-143.5 -176.5t-55.5 -290q0 -152 41 -275t126.5 -195.5t217.5 -72.5q100 0 176 39t118.5 109.5
t42.5 166.5h129q0 -130 -61 -224t-166 -145t-236 -51zM57 488v80h655v-80h-655zM57 681v80h655v-80h-655z" />
    <glyph glyph-name="five.dnom" horiz-adv-x="776" 
d="M385 -22q-65 0 -121.5 24.5t-91 72t-34.5 115.5h68q0 -72 52.5 -110t126.5 -38q90 0 139 53.5t49 132.5q0 158 -201 158h-184l31 349h393v-63h-337l15 28l-27 -279l-12 9q29 7 64.5 9.5t63.5 2.5q124 0 195.5 -53t71.5 -161q0 -71 -31.5 -127.5t-89.5 -89.5t-140 -33z
" />
    <glyph glyph-name="five.numr" horiz-adv-x="776" 
d="M385 578q-65 0 -121.5 24.5t-91 72t-34.5 115.5h68q0 -72 52.5 -110t126.5 -38q90 0 139 53.5t49 132.5q0 158 -201 158h-184l31 349h393v-63h-337l15 28l-27 -279l-12 9q29 7 64.5 9.5t63.5 2.5q124 0 195.5 -53t71.5 -161q0 -71 -31.5 -127.5t-89.5 -89.5t-140 -33z
" />
    <glyph glyph-name="five.tf" 
d="M583 -22q-108 0 -202 40.5t-152 119t-60 193.5h117q0 -120 86 -182.5t211 -62.5q146 0 228.5 88.5t82.5 218.5q0 129 -85.5 196t-248.5 67h-309l54 579h655v-105h-564l25 47l-44 -464l-20 16q48 11 108 15t108 4q204 0 323.5 -88t119.5 -267q0 -118 -52.5 -212
t-149 -148.5t-231.5 -54.5z" />
    <glyph glyph-name="four.dnom" horiz-adv-x="693" 
d="M451 756h63v-508h129v-59h-129v-189h-69v189h-389v56zM447 639l-306 -394h306v394z" />
    <glyph glyph-name="four.numr" horiz-adv-x="693" 
d="M451 1356h63v-508h129v-59h-129v-189h-69v189h-389v56zM447 1239l-306 -394h306v394z" />
    <glyph glyph-name="four.tf" 
d="M755 1255h102v-866l-20 17h229v-91h-227l18 23v-338h-112v338l28 -23h-671v91zM746 1153l61 -15l-597 -767l-2 35h566l-28 -25v772z" />
    <glyph glyph-name="greater.tf" 
d="M332 92l-75 93l601 431v-46l-601 436l75 90l611 -454v-98z" />
    <glyph glyph-name="greaterequal.tf" 
d="M311 250l-39 94l562 220v-42l-562 228l39 88l594 -249v-89zM285 0v91h639v-91h-639z" />
    <glyph glyph-name="i.loclTRK" horiz-adv-x="566" 
d="M215 0v950h116v-950h-116zM195.755 1229.66q0 35.3213 26.001 62.793q26 27.4717 64.2646 27.4717q39.2451 0 66.7168 -27.4717q27.4727 -27.4717 27.4727 -62.793q0 -36.3027 -27.4727 -61.8115q-27.4717 -25.5098 -66.7168 -25.5098q-38.2646 0 -64.2646 25.5098
q-26.001 25.5088 -26.001 61.8115z" />
    <glyph glyph-name="less.tf" 
d="M866 1096l77 -90l-603 -436v46l603 -431l-77 -93l-611 452v98z" />
    <glyph glyph-name="lessequal.tf" 
d="M888 250l-596 250v89l596 249l37 -88l-562 -228v42l562 -220zM273 0v91h639v-91h-639z" />
    <glyph glyph-name="minus.tf" 
d="M116 541h968v-98h-968v98z" />
    <glyph glyph-name="multiply.tf" 
d="M301 120l-79 81l296 299l-296 294l79 81l299 -296l296 296l81 -81l-298 -294l298 -299l-81 -81l-296 296z" />
    <glyph glyph-name="nine.dnom" horiz-adv-x="780" 
d="M392 -22q-72 0 -127 30.5t-86 83.5t-31 120h72q1 -77 46 -123.5t125 -46.5q110 0 160 95t50 255q0 27 -1.5 48.5t-5.5 50.5q-9 -97 -67 -148t-149 -51q-97 0 -165 65.5t-68 165.5q0 102 67 163.5t176 61.5q84 0 148.5 -45.5t101 -128t36.5 -195.5q0 -184 -67.5 -292.5
t-214.5 -108.5zM388 358q73 0 122 47.5t49 115.5q0 75 -49 119t-122 44q-74 0 -122 -44t-48 -119q0 -76 48 -119.5t122 -43.5z" />
    <glyph glyph-name="nine.numr" horiz-adv-x="780" 
d="M392 578q-72 0 -127 30.5t-86 83.5t-31 120h72q1 -77 46 -123.5t125 -46.5q110 0 160 95t50 255q0 27 -1.5 48.5t-5.5 50.5q-9 -97 -67 -148t-149 -51q-97 0 -165 65.5t-68 165.5q0 102 67 163.5t176 61.5q84 0 148.5 -45.5t101 -128t36.5 -195.5q0 -184 -67.5 -292.5
t-214.5 -108.5zM388 958q73 0 122 47.5t49 115.5q0 75 -49 119t-122 44q-74 0 -122 -44t-48 -119q0 -76 48 -119.5t122 -43.5z" />
    <glyph glyph-name="nine.tf" 
d="M570 -22q-121 0 -212 50.5t-142 138.5t-51 199h120q3 -128 76 -204t207 -76q122 0 199 71t113.5 201t36.5 308q0 44 -2 80t-9 83q-10 -107 -57.5 -180.5t-123.5 -111.5t-175 -38q-109 0 -197.5 49.5t-141 136t-52.5 197.5q0 114 51.5 197.5t142 129.5t209.5 46
q105 0 193 -42.5t152 -123t99 -193t35 -253.5q0 -204 -50 -353t-154 -230.5t-267 -81.5zM563 609q82 0 146.5 36.5t101 97.5t36.5 136q0 125 -80.5 198t-204.5 73q-122 0 -201.5 -73t-79.5 -198t79.5 -197.5t202.5 -72.5z" />
    <glyph glyph-name="notequal.tf" 
d="M279 354h639v-99h-639v99zM279 720h639v-102h-639v102zM401 115l297 758h89l-298 -758h-88z" />
    <glyph glyph-name="one.dnom" horiz-adv-x="507" 
d="M237 745h59v-745h-70v664q-28 -23 -60 -35t-64 -13v69q36 6 70.5 20t64.5 40z" />
    <glyph glyph-name="one.numr" horiz-adv-x="507" 
d="M237 1345h59v-745h-70v664q-28 -23 -60 -35t-64 -13v69q36 6 70.5 20t64.5 40z" />
    <glyph glyph-name="one.tf" 
d="M283 0v98h283l-23 -23v1080l47 -11q-52 -57 -119 -87.5t-134 -34.5v115q62 10 118.5 34t101.5 66h102v-1162l-25 23h285v-98h-636z" />
    <glyph glyph-name="percent.tf" 
d="M131 0l819 1235h122l-823 -1235h-118zM922 -22q-63 0 -118 31t-89 93t-34 156t34 155.5t89 92t118 30.5q64 0 119.5 -30.5t89.5 -92t34 -155.5t-34 -156t-89.5 -93t-119.5 -31zM922 64q64 0 105.5 48t41.5 146q0 100 -41.5 148t-105.5 48q-67 0 -108 -48t-41 -148
q0 -98 41 -146t108 -48zM276 700q-61 0 -116.5 30.5t-90 92t-34.5 154.5t34.5 155t90 92.5t116.5 30.5q64 0 120 -30.5t91 -92.5t35 -155t-35 -154.5t-91 -92t-120 -30.5zM276 784q65 0 107 47.5t42 145.5q0 99 -42 148t-107 49t-106 -49t-41 -148q0 -98 41 -145.5
t106 -47.5z" />
    <glyph glyph-name="plus.tf" 
d="M542 982h116v-442h426v-98h-426v-442h-116v442h-424v98h424v442z" />
    <glyph glyph-name="plusminus.tf" 
d="M547 1026h103v-345h323v-83h-323v-346h-103v346h-323v83h323v345zM264 91h671v-91h-671v91z" />
    <glyph glyph-name="uni20A8.tf" 
d="M209 1157v78h782v-78h-782zM209 862v80h782v-80h-782zM209 575h74l648 -575h-165l-557 495v80zM251 575h72q185 0 273.5 85t88.5 209q0 125 -88.5 206.5t-273.5 81.5h-72v58h72q167 0 275 -45.5t160 -123.5t52 -177q0 -101 -48.5 -186t-155.5 -136.5t-283 -51.5h-72v80z
" />
    <glyph glyph-name="seven.dnom" horiz-adv-x="582" 
d="M99 0l365 679h-416v65h499v-62l-356 -682h-92z" />
    <glyph glyph-name="seven.numr" horiz-adv-x="582" 
d="M99 600l365 679h-416v65h499v-62l-356 -682h-92z" />
    <glyph glyph-name="seven.tf" 
d="M173 1235h828v-103l-590 -1132h-153l606 1127h-691v108z" />
    <glyph glyph-name="six.dnom" horiz-adv-x="760" 
d="M392 -22q-87 0 -151.5 49t-99.5 133.5t-35 189.5q0 185 79.5 291.5t223.5 106.5q93 0 152.5 -53t70.5 -138h-78q-10 58 -44 92.5t-100 34.5q-109 0 -171 -94t-62 -255q0 -25 1.5 -58t5.5 -62q4 83 35 131t79 68.5t102 20.5q99 0 168 -64.5t69 -165.5q0 -102 -68 -164.5
t-177 -62.5zM392 42q75 0 122.5 44t47.5 119q0 77 -47.5 120t-122.5 43q-73 0 -121 -46.5t-48 -116.5q0 -75 48 -119t121 -44z" />
    <glyph glyph-name="six.numr" horiz-adv-x="760" 
d="M392 578q-87 0 -151.5 49t-99.5 133.5t-35 189.5q0 185 79.5 291.5t223.5 106.5q93 0 152.5 -53t70.5 -138h-78q-10 58 -44 92.5t-100 34.5q-109 0 -171 -94t-62 -255q0 -25 1.5 -58t5.5 -62q4 83 35 131t79 68.5t102 20.5q99 0 168 -64.5t69 -165.5q0 -102 -68 -164.5
t-177 -62.5zM392 642q75 0 122.5 44t47.5 119q0 77 -47.5 120t-122.5 43q-73 0 -121 -46.5t-48 -116.5q0 -75 48 -119t121 -44z" />
    <glyph glyph-name="six.tf" 
d="M609 -22q-144 0 -250.5 82t-165 222t-58.5 314q0 205 59.5 353t171.5 227t271 79q104 0 182 -40t126 -111t60 -165h-127q-17 96 -74 153t-165 57q-181 0 -282 -155t-101 -424q0 -41 2 -96t7 -102q6 138 57.5 217.5t131.5 113t169 33.5q109 0 197.5 -48.5t140.5 -134.5
t52 -199q0 -112 -50.5 -197t-141.5 -132t-212 -47zM609 86q122 0 202.5 72.5t80.5 196.5q0 127 -80 199t-202 72q-82 0 -146 -36t-101 -97t-37 -138q0 -124 80.5 -196.5t202.5 -72.5z" />
    <glyph glyph-name="sterling.tf" 
d="M159 63v35q79 0 115.5 45t36.5 138v571q0 123 36.5 213.5t113.5 140t198 49.5q128 0 214 -69.5t110 -205.5h-115q-15 89 -74.5 129t-134.5 40q-108 0 -170 -71.5t-62 -225.5v-567q0 -119 -54.5 -170.5t-213.5 -51.5zM107 0v98h658q96 0 142.5 43t62.5 134h120
q-12 -124 -83 -199.5t-240 -75.5h-660zM123 520v86h676v-86h-676z" />
    <glyph glyph-name="three.dnom" horiz-adv-x="790" 
d="M393 -22q-72 0 -136 27t-103.5 80.5t-39.5 129.5h69q1 -86 63 -129.5t147 -43.5q90 0 139 45t49 111q0 64 -47 105.5t-160 41.5h-76v56h42q98 0 154 37.5t56 104.5q0 59 -44.5 100t-124.5 41q-60 0 -107 -25t-66 -92h-69q15 98 82.5 139.5t159.5 41.5q105 0 175 -56.5
t70 -144.5q0 -59 -35 -100.5t-99 -65.5q72 -19 118.5 -65t46.5 -121q0 -94 -70 -155.5t-194 -61.5z" />
    <glyph glyph-name="three.numr" horiz-adv-x="790" 
d="M393 578q-72 0 -136 27t-103.5 80.5t-39.5 129.5h69q1 -86 63 -129.5t147 -43.5q90 0 139 45t49 111q0 64 -47 105.5t-160 41.5h-76v56h42q98 0 154 37.5t56 104.5q0 59 -44.5 100t-124.5 41q-60 0 -107 -25t-66 -92h-69q15 98 82.5 139.5t159.5 41.5q105 0 175 -56.5
t70 -144.5q0 -59 -35 -100.5t-99 -65.5q72 -19 118.5 -65t46.5 -121q0 -94 -70 -155.5t-194 -61.5z" />
    <glyph glyph-name="three.tf" 
d="M605 -22q-92 0 -175.5 25.5t-149 75.5t-103.5 123.5t-38 169.5h118q1 -95 48.5 -158.5t126 -95.5t173.5 -32q146 0 228.5 74t82.5 184q0 70 -34.5 124.5t-110 86.5t-198.5 32h-129v93h73q160 0 253 62.5t93 173.5q0 97 -73 165t-204 68q-102 0 -180.5 -40.5
t-107.5 -152.5h-118q17 109 74.5 174.5t143 95t186.5 29.5q116 0 207.5 -42.5t144 -118t52.5 -171.5q0 -99 -58 -168t-165 -108q121 -31 198.5 -108.5t77.5 -201.5q0 -104 -52 -185t-149.5 -127.5t-234.5 -46.5z" />
    <glyph glyph-name="two.dnom" horiz-adv-x="794" 
d="M132 0v101q0 98 48.5 147.5t122.5 79.5l144 58q61 25 91.5 64.5t30.5 100.5q0 64 -43.5 103.5t-120.5 39.5q-78 0 -126 -31.5t-55 -94.5h-78q5 59 37 101t88 64.5t134 22.5q70 0 124 -27.5t86 -75t32 -108.5q0 -87 -47 -139.5t-120 -83.5l-149 -61q-63 -24 -96 -60
t-33 -93v-43h436v-65h-506z" />
    <glyph glyph-name="two.numr" horiz-adv-x="794" 
d="M132 600v101q0 98 48.5 147.5t122.5 79.5l144 58q61 25 91.5 64.5t30.5 100.5q0 64 -43.5 103.5t-120.5 39.5q-78 0 -126 -31.5t-55 -94.5h-78q5 59 37 101t88 64.5t134 22.5q70 0 124 -27.5t86 -75t32 -108.5q0 -87 -47 -139.5t-120 -83.5l-149 -61q-63 -24 -96 -60
t-33 -93v-43h436v-65h-506z" />
    <glyph glyph-name="two.tf" 
d="M177 0v168q0 109 36.5 180.5t100 117.5t144.5 79l239 96q101 42 153.5 107t52.5 165q0 106 -73.5 172t-202.5 66q-127 0 -207 -52t-94 -156h-127q7 97 60 167t145.5 107.5t221.5 37.5q118 0 208.5 -45.5t142 -125t51.5 -181.5q0 -95 -35.5 -165t-98 -119.5t-141.5 -83.5
l-249 -101q-105 -44 -158 -102t-53 -153v-71h721v-108h-837z" />
    <glyph glyph-name="yen.tf" 
d="M540 0v506l-444 729h139l384 -636h-38l384 636h139l-445 -729v-506h-119zM267 218v81h668v-81h-668zM267 408v81h668v-81h-668z" />
    <glyph glyph-name="zero.dnom" horiz-adv-x="776" 
d="M388 -22q-128 0 -205 97t-77 289t77 288t205 96q127 0 205 -96t78 -288t-78 -289t-205 -97zM388 42q105 0 157 85t52 237q0 151 -52 235.5t-157 84.5q-103 0 -156 -84.5t-53 -235.5q0 -152 53 -237t156 -85z" />
    <glyph glyph-name="zero.numr" horiz-adv-x="776" 
d="M388 578q-128 0 -205 97t-77 289t77 288t205 96q127 0 205 -96t78 -288t-78 -289t-205 -97zM388 642q105 0 157 85t52 237q0 151 -52 235.5t-157 84.5q-103 0 -156 -84.5t-53 -235.5q0 -152 53 -237t156 -85z" />
    <glyph glyph-name="zero.tf" 
d="M600 -22q-142 0 -247.5 71t-163.5 213.5t-58 355.5t58 354.5t163.5 212t247.5 70.5t247 -70.5t163.5 -212t58.5 -354.5t-58.5 -355.5t-163.5 -213.5t-247 -71zM600 86q173 0 260 139.5t87 392.5t-87 392t-260 139q-171 0 -259 -139t-88 -392t88 -392.5t259 -139.5z" />
    </font>
</defs>
</svg>
