<?xml version="1.0" standalone="no"?>
<!DOCTYPE svg PUBLIC "-//W3C//DTD SVG 1.1//EN" "http://www.w3.org/Graphics/SVG/1.1/DTD/svg11.dtd" >
<svg xmlns="http://www.w3.org/2000/svg" xmlns:xlink="http://www.w3.org/1999/xlink" version="1.1">
<metadata>
Created by FontForge 20170731 at Wed Oct 28 20:58:09 2020
 By Aleksey,,,
Copyright 2019 The Karla Project Authors (https://github.com/googlefonts/karla)
</metadata>
<defs>
<font id="Karla-Bold" horiz-adv-x="1200" >
  <font-face 
    font-family="Karla"
    font-weight="700"
    font-stretch="normal"
    units-per-em="2000"
    panose-1="2 11 0 4 3 5 3 3 0 3"
    ascent="1600"
    descent="-400"
    x-height="970"
    cap-height="1298"
    bbox="-291.501 -502 2408 2006"
    underline-thickness="50"
    underline-position="-175"
    unicode-range="U+000D-FB02"
  />
<missing-glyph horiz-adv-x="1031" 
d="M10 1645h1011v-1640h-1011v1640zM0 1655v-1660h1031v1660h-1031zM1021 5q-91 121 -179.5 269.5t-180.5 315.5t-192 344.5t-213.5 357.5t-245.5 353q139 -228 269 -456.5t254.5 -443.5t246 -403.5t241.5 -336.5zM10 5q120 148 241.5 336.5t246 403.5t254.5 443.5
t269 456.5q-132 -173 -245.5 -353t-213.5 -357.5t-192 -344.5t-180.5 -315.5t-179.5 -269.5z" />
    <glyph glyph-name="fi" unicode="fi" horiz-adv-x="1392" 
d="M242 0v1088q0 105 41 171t108.5 97.5t146.5 31.5q49 0 101 -7t101 -17l-46 -182q-25 9 -52 14.5t-52 5.5q-28 0 -53 -10.5t-41 -36.5t-16 -71v-1084h-238zM98 814v156h560v-156h-560zM1059 1148q-69 0 -107.5 36.5t-38.5 101.5q0 63 38.5 100.5t107.5 37.5
q68 0 107 -37.5t39 -100.5q0 -65 -39 -101.5t-107 -36.5zM941 0v974h236v-974h-236z" />
    <glyph glyph-name="fl" unicode="fl" horiz-adv-x="1344" 
d="M242 0v1088q0 105 41 171t108.5 97.5t146.5 31.5q49 0 101 -7t101 -17l-46 -182q-25 9 -52 14.5t-52 5.5q-28 0 -53 -10.5t-41 -36.5t-16 -71v-1084h-238zM98 814v156h560v-156h-560zM921 0v1372h236v-1372h-236z" />
    <glyph glyph-name=".notdef" horiz-adv-x="1031" 
d="M10 1645h1011v-1640h-1011v1640zM0 1655v-1660h1031v1660h-1031zM1021 5q-91 121 -179.5 269.5t-180.5 315.5t-192 344.5t-213.5 357.5t-245.5 353q139 -228 269 -456.5t254.5 -443.5t246 -403.5t241.5 -336.5zM10 5q120 148 241.5 336.5t246 403.5t254.5 443.5
t269 456.5q-132 -173 -245.5 -353t-213.5 -357.5t-192 -344.5t-180.5 -315.5t-179.5 -269.5z" />
    <glyph glyph-name=".null" 
 />
    <glyph glyph-name="nonmarkingreturn" horiz-adv-x="666" 
 />
    <glyph glyph-name="CR" unicode="&#xd;" 
 />
    <glyph glyph-name="space" unicode=" " horiz-adv-x="506" 
 />
    <glyph glyph-name="exclam" unicode="!" horiz-adv-x="586" 
d="M198 438l-26 888h256l-28 -888h-202zM301 -18q-73 0 -119 44.5t-46 113.5q0 66 46 112t119 46q71 0 119 -46t48 -112q0 -69 -48 -113.5t-119 -44.5z" />
    <glyph glyph-name="quotedbl" unicode="&#x22;" horiz-adv-x="765" 
d="M496 896l-30 476h236l-32 -476h-174zM94 896l-30 476h236l-32 -476h-174z" />
    <glyph glyph-name="numbersign" unicode="#" horiz-adv-x="1356" 
d="M270 66l28 262h-184l14 154h186l34 316h-186l16 154h186l28 260h222l-28 -260h272l28 260h220l-26 -260h186l-16 -154h-188l-32 -316h188l-16 -154h-188l-28 -262h-222l28 262h-272l-28 -262h-222zM536 482h272l34 316h-272z" />
    <glyph glyph-name="dollar" unicode="$" horiz-adv-x="1378" 
d="M708 -28q-115 0 -219.5 26t-185 78.5t-127 135t-46.5 194.5h232q0 -78 42 -126t122 -70t194 -22q91 0 149 22t85.5 59.5t27.5 82.5q0 57 -37.5 99t-108.5 67l-142 54v204l256 -90q150 -52 224 -132t74 -208q0 -94 -57.5 -179.5t-177 -140t-305.5 -54.5zM606 -202v1676
h168v-1676h-168zM652 568l-146 50q-168 57 -259 136t-91 216q0 158 134.5 256t391.5 98q239 0 363.5 -103.5t154.5 -280.5h-234q-15 77 -87.5 129.5t-200.5 52.5q-132 0 -199 -45t-67 -115q0 -52 32.5 -84.5t101.5 -57.5l106 -44v-208z" />
    <glyph glyph-name="percent" unicode="%" horiz-adv-x="1529" 
d="M212 0l880 1298h238l-878 -1298h-240zM1150 -22q-72 0 -134 33.5t-100 101t-38 169.5t38 169.5t100 101t134 33.5q74 0 137 -33.5t101 -101t38 -169.5t-38 -169.5t-101 -101t-137 -33.5zM1150 130q44 0 71 34t27 118q0 83 -27 118.5t-71 35.5q-43 0 -69.5 -35.5
t-26.5 -118.5q0 -84 26.5 -118t69.5 -34zM394 718q-72 0 -134 33.5t-100 101t-38 169.5q0 101 38 168t100 100.5t134 33.5q74 0 137 -33.5t101 -100.5t38 -168q0 -102 -38 -169.5t-101 -101t-137 -33.5zM394 868q43 0 70.5 35t27.5 119q0 83 -27.5 117.5t-70.5 34.5
t-69.5 -34.5t-26.5 -117.5q0 -84 26.5 -119t69.5 -35z" />
    <glyph glyph-name="ampersand" unicode="&#x26;" horiz-adv-x="1930" 
d="M1512 -28q-97 0 -181 42.5t-179 129.5l-634 574q-63 57 -103.5 131t-40.5 155q0 88 51 159.5t149 114t238 42.5q135 0 230.5 -42t146.5 -113t51 -157q0 -90 -44 -161.5t-132 -128t-220 -100.5l-124 116q90 35 147.5 71.5t85 78.5t27.5 94q0 60 -46.5 99t-121.5 39
q-87 0 -132.5 -42.5t-45.5 -103.5q0 -46 23 -87t71 -85l614 -554q37 -31 68.5 -47.5t77.5 -16.5q48 0 82.5 35t37.5 113h214q-4 -163 -81 -259.5t-229 -96.5zM720 -28q-111 0 -208 30t-171 84t-115.5 126.5t-41.5 157.5q0 154 125.5 234t348.5 98l76 -128
q-153 -13 -221.5 -61.5t-68.5 -128.5q0 -55 33 -99.5t95 -71.5t150 -27q112 0 207 44.5t175.5 124t146.5 187t117 234.5l158 -88q-54 -160 -133.5 -291.5t-181.5 -226.5t-225.5 -146.5t-265.5 -51.5z" />
    <glyph glyph-name="quotesingle" unicode="'" horiz-adv-x="359" 
d="M62 1354h236l-32 -476h-174z" />
    <glyph glyph-name="parenleft" unicode="(" horiz-adv-x="799" 
d="M564 1508l170 -124q-115 -120 -191.5 -240t-114.5 -245.5t-38 -262.5q0 -204 86 -384.5t258 -359.5l-170 -128q-215 191 -316.5 410t-101.5 462q0 245 101.5 464t316.5 408z" />
    <glyph glyph-name="parenright" unicode=")" horiz-adv-x="799" 
d="M236 -236l-172 128q173 179 259.5 359.5t86.5 384.5q0 137 -38.5 262.5t-115.5 245.5t-192 240l172 124q213 -189 315.5 -408t102.5 -464q0 -162 -45 -313.5t-138 -291.5t-235 -267z" />
    <glyph glyph-name="asterisk" unicode="*" horiz-adv-x="818" 
d="M150 894l172 162l-222 74l60 140l198 -100l-24 238h160l-24 -238l198 104l60 -142l-218 -74l172 -164l-118 -102l-148 202l-152 -202z" />
    <glyph glyph-name="plus" unicode="+" horiz-adv-x="1087" 
d="M426 982h236v-388h390v-206h-390v-388h-236v388h-390v206h390v388z" />
    <glyph glyph-name="comma" unicode="," horiz-adv-x="506" 
d="M222 -272l-174 88q66 33 117 76t67 98q-55 11 -94.5 46t-39.5 92q0 60 46 101t116 41q89 0 139.5 -62t50.5 -147q0 -97 -61 -188.5t-167 -144.5z" />
    <glyph glyph-name="hyphen" unicode="-" horiz-adv-x="747" 
d="M92 500v206h562v-206h-562z" />
    <glyph glyph-name="period" unicode="." horiz-adv-x="430" 
d="M48 138q0 68 46 114t118 46t120 -46t48 -114q0 -67 -48 -111.5t-120 -44.5t-118 45t-46 111z" />
    <glyph glyph-name="slash" unicode="/" horiz-adv-x="943" 
d="M106 -160l514 1650h242l-518 -1650h-238z" />
    <glyph glyph-name="zero" unicode="0" horiz-adv-x="1265" 
d="M634 -28q-160 0 -281.5 74t-190 224t-68.5 378q0 229 68.5 379t190 223.5t281.5 73.5q158 0 279.5 -73.5t190 -223.5t68.5 -379q0 -228 -68.5 -378t-190 -224t-279.5 -74zM634 188q140 0 217 118.5t77 341.5t-77 342.5t-217 119.5q-141 0 -218.5 -119.5t-77.5 -342.5
t77.5 -341.5t218.5 -118.5z" />
    <glyph glyph-name="one" unicode="1" horiz-adv-x="713" 
d="M348 1306h178v-1306h-236v1024q-53 -24 -104 -37t-102 -13v226q68 7 132 31.5t132 74.5z" />
    <glyph glyph-name="two" unicode="2" horiz-adv-x="1210" 
d="M120 0v222q0 109 33 185t98.5 128.5t164.5 90.5l266 102q87 35 128.5 86t41.5 126t-54.5 126.5t-155.5 51.5q-97 0 -162.5 -48.5t-75.5 -141.5h-262q3 133 69 221t177 131.5t250 43.5q131 0 237 -49.5t168.5 -138t62.5 -206.5q0 -100 -36.5 -176t-110.5 -133t-187 -101
l-268 -104q-78 -30 -113 -66.5t-35 -95.5v-38h742v-216h-978z" />
    <glyph glyph-name="three" unicode="3" horiz-adv-x="1244" 
d="M626 -28q-103 0 -199 28t-172 83t-120.5 136.5t-44.5 188.5h248q4 -68 41 -117.5t100.5 -76t146.5 -26.5q122 0 191 56t69 142q0 56 -28 96.5t-86 62t-148 21.5h-172v186h146q114 0 179 49t65 133q0 75 -56 125.5t-168 50.5q-91 0 -162.5 -37t-91.5 -129h-248
q14 133 80.5 217t172.5 123.5t239 39.5q141 0 251 -46t173.5 -127.5t63.5 -188.5q0 -99 -54 -172.5t-160 -109.5q118 -40 189 -119t71 -197q0 -115 -64.5 -203.5t-180.5 -138.5t-271 -50z" />
    <glyph glyph-name="four" unicode="4" horiz-adv-x="1190" 
d="M708 1312h228v-822h226v-202h-226v-288h-234v288h-658v178zM714 962l-390 -496h390v496z" />
    <glyph glyph-name="five" unicode="5" horiz-adv-x="1164" 
d="M594 -28q-140 0 -247 48.5t-168.5 141.5t-64.5 226h240q0 -100 69 -150t171 -50q109 0 178.5 70.5t69.5 173.5q0 200 -268 200h-396l60 666h778v-216h-588l46 68l-38 -386l-20 22q48 11 114 16.5t114 5.5q201 0 320.5 -97.5t119.5 -278.5q0 -129 -61 -233.5t-171 -165.5
t-258 -61z" />
    <glyph glyph-name="six" unicode="6" horiz-adv-x="1214" 
d="M644 -28q-163 0 -287 85t-193.5 232.5t-69.5 336.5q0 223 70 379t196.5 237.5t295.5 81.5q129 0 228 -47.5t156 -133.5t62 -201h-252q-11 78 -56 123t-130 45q-154 0 -244 -135.5t-90 -368.5q0 -30 1.5 -65t6.5 -67q16 123 70.5 193t131.5 99.5t162 29.5q122 0 215 -53
t146 -146t53 -213q0 -123 -59.5 -216t-166 -144.5t-246.5 -51.5zM644 188q94 0 161 56.5t67 149.5q0 97 -67 152.5t-161 55.5q-62 0 -112.5 -26t-81 -73t-30.5 -109q0 -93 65.5 -149.5t158.5 -56.5z" />
    <glyph glyph-name="seven" unicode="7" horiz-adv-x="995" 
d="M88 0l594 1070h-634v228h912v-226l-554 -1072h-318z" />
    <glyph glyph-name="eight" unicode="8" horiz-adv-x="1293" 
d="M646 -28q-167 0 -290 49.5t-190.5 135t-67.5 193.5q0 92 49 157t134 100t191 35q42 0 78 -7t84 -19v-58q-85 0 -151 -25t-103.5 -67t-37.5 -92q0 -58 41 -99.5t110 -64t153 -22.5q156 0 231 40.5t75 103.5q0 50 -36.5 85.5t-101.5 60.5l-370 142q-67 26 -136.5 72
t-117.5 115t-48 163q0 108 59.5 187.5t172 123t272.5 43.5q142 0 256 -48t181 -132t67 -192q0 -75 -41 -139t-119 -103.5t-188 -39.5q-38 0 -70 6.5t-74 19.5v68q66 0 122.5 21.5t91 60t34.5 90.5q0 53 -33 92t-91.5 60.5t-135.5 21.5q-73 0 -132 -19.5t-93.5 -53.5
t-34.5 -77q0 -49 34 -80.5t98 -57.5l382 -148q143 -55 219.5 -127.5t76.5 -202.5q0 -108 -64.5 -192t-187.5 -132t-298 -48z" />
    <glyph glyph-name="nine" unicode="9" horiz-adv-x="1220" 
d="M594 -28q-134 0 -241 52.5t-170 145t-63 214.5h246q4 -90 65.5 -143t154.5 -53q109 0 176 62.5t97.5 175.5t30.5 264q0 30 -1.5 58.5t-6.5 59.5q-19 -110 -72 -177.5t-128.5 -98t-163.5 -30.5q-121 0 -213.5 52.5t-145.5 145t-53 212.5q0 124 59.5 217t165 144t243.5 51
q116 0 216.5 -47t175.5 -133.5t117.5 -206.5t42.5 -267q0 -213 -59 -370t-177 -242.5t-296 -85.5zM576 696q61 0 112.5 26t82.5 72t31 106q0 96 -67.5 152t-160.5 56t-158.5 -56t-65.5 -152t66 -150t160 -54z" />
    <glyph glyph-name="colon" unicode=":" horiz-adv-x="539" 
d="M102 172q0 68 46 114t118 46t120 -46t48 -114q0 -67 -48 -111.5t-120 -44.5t-118 45t-46 111zM102 768q0 68 46 114t118 46t120 -46t48 -114q0 -67 -48 -111.5t-120 -44.5t-118 45t-46 111z" />
    <glyph glyph-name="semicolon" unicode=";" horiz-adv-x="616" 
d="M282 -272l-174 88q66 33 117 76t67 98q-55 11 -94.5 46t-39.5 92q0 60 46 101t116 41q89 0 139.5 -62t50.5 -147q0 -97 -61 -188.5t-167 -144.5zM170 768q0 68 46 114t118 46t120 -46t48 -114q0 -67 -48 -111.5t-120 -44.5t-118 45t-46 111z" />
    <glyph glyph-name="less" unicode="&#x3c;" horiz-adv-x="1004" 
d="M758 1234l156 -180l-654 -460v100l654 -458l-156 -180l-668 482v212z" />
    <glyph glyph-name="equal" unicode="=" horiz-adv-x="1012" 
d="M158 396h696v-204h-696v204zM158 816h696v-204h-696v204z" />
    <glyph glyph-name="greater" unicode="&#x3e;" horiz-adv-x="1004" 
d="M246 56l-156 180l652 458v-100l-652 460l156 180l668 -484v-212z" />
    <glyph glyph-name="question" unicode="?" horiz-adv-x="1034" 
d="M350 388v80q0 87 20.5 143t64 94.5t115.5 74.5q63 32 98 59.5t48.5 56.5t13.5 68q0 63 -51 104.5t-139 41.5q-105 0 -161.5 -46.5t-64.5 -123.5h-246q11 174 128.5 279t333.5 105q142 0 245 -48t159 -130t56 -184q0 -104 -52.5 -176t-163.5 -128q-65 -33 -101.5 -62
t-51.5 -63.5t-15 -86.5v-58h-236zM474 -28q-73 0 -118.5 45t-45.5 110q0 68 45.5 113.5t117.5 45.5q73 0 121 -45.5t48 -112.5q0 -66 -48 -111t-120 -45z" />
    <glyph glyph-name="at" unicode="@" horiz-adv-x="2053" 
d="M1138 -434q-228 0 -412.5 65t-317 182t-203.5 275.5t-71 346.5q0 193 74 355t206 282t310 186t385 66q193 0 348.5 -56.5t266 -158.5t169.5 -237.5t59 -291.5q0 -135 -41 -240t-110.5 -177.5t-156 -110.5t-177.5 -38t-152 35.5t-79 96.5l-12 32q-34 -68 -92 -116
t-155 -48q-93 0 -171 47.5t-124 132.5t-46 197q0 101 38 189.5t105.5 155.5t154 105.5t183.5 38.5q134 0 211.5 -79.5t77.5 -238.5v-262q0 -55 17.5 -78.5t52.5 -23.5q46 0 102 41t96 125t40 212q0 155 -69 276t-202 190.5t-324 69.5q-166 0 -303 -53.5t-236.5 -149.5
t-153.5 -224.5t-54 -279.5q0 -189 89 -335t260 -229t417 -83v-192zM1017 204q70 0 115.5 40.5t85.5 115.5v200q0 62 -23 100t-84 38q-59 0 -120 -38t-102 -106.5t-41 -159.5q0 -96 48.5 -143t120.5 -47z" />
    <glyph glyph-name="A" unicode="A" horiz-adv-x="1251" 
d="M44 0l442 1298h296l424 -1298h-248l-90 280h-482l-92 -280h-250zM446 458h366l-182 558z" />
    <glyph glyph-name="B" unicode="B" horiz-adv-x="1296" 
d="M186 0v1298h524q150 0 249 -46.5t148 -124.5t49 -173q0 -110 -61.5 -188t-172.5 -110q73 -15 131 -55t91.5 -101t33.5 -140q0 -62 -21.5 -125t-74 -116.5t-143 -86t-227.5 -32.5h-526zM422 206h284q113 0 165.5 45.5t52.5 122.5t-54 123.5t-164 46.5h-284v-338zM422 1094
v-344h278q105 0 159.5 46.5t54.5 127.5q0 77 -53.5 123.5t-158.5 46.5h-280z" />
    <glyph glyph-name="C" unicode="C" horiz-adv-x="1267" 
d="M658 -28q-171 0 -297.5 81.5t-196.5 233.5t-70 365q0 220 72.5 369.5t200 226t291.5 76.5q227 0 354.5 -110t163.5 -286l-252 -46q-31 102 -99 165t-167 63q-87 0 -157 -50.5t-111.5 -152.5t-41.5 -255q0 -144 36.5 -248t105.5 -160t168 -56q127 0 196.5 67.5t69.5 172.5
h252q0 -145 -62.5 -246.5t-178.5 -155.5t-277 -54z" />
    <glyph glyph-name="D" unicode="D" horiz-adv-x="1373" 
d="M186 1298h420q198 0 347 -79.5t232 -225.5t83 -345q0 -197 -83 -342.5t-232 -225.5t-347 -80h-420v1298zM422 1084v-872h184q126 0 217.5 57t141 155.5t49.5 223.5q0 127 -49.5 225t-141 154.5t-217.5 56.5h-184z" />
    <glyph glyph-name="E" unicode="E" horiz-adv-x="1173" 
d="M184 0v1298h834v-204h-598v-342h562v-204h-562v-342h598v-206h-834z" />
    <glyph glyph-name="F" unicode="F" horiz-adv-x="1093" 
d="M186 0v1298h818v-204h-582v-342h532v-202h-532v-550h-236z" />
    <glyph glyph-name="G" unicode="G" horiz-adv-x="1354" 
d="M660 -28q-159 0 -287 84t-203.5 234.5t-75.5 351.5q0 159 46.5 285t129.5 215t195 135.5t243 46.5q182 0 305.5 -79t192.5 -249l-242 -56q-51 83 -117.5 126.5t-150.5 43.5q-96 0 -175 -56.5t-126 -161.5t-47 -250q0 -136 41.5 -238t116.5 -159t174 -57q84 0 150.5 37.5
t105 107.5t38.5 169h52q0 -162 -38.5 -281t-119.5 -184t-208 -65zM1008 0l-34 286v224l-292 6v150h518v-666h-192z" />
    <glyph glyph-name="H" unicode="H" horiz-adv-x="1411" 
d="M186 1298h236v-542h566v542h236v-1298h-236v550h-566v-550h-236v1298z" />
    <glyph glyph-name="I" unicode="I" horiz-adv-x="609" 
d="M186 0v1298h236v-1298h-236z" />
    <glyph glyph-name="J" unicode="J" horiz-adv-x="887" 
d="M32 54v236q80 -46 156.5 -67t141.5 -21q86 0 125 50t39 152v894h238v-894q0 -157 -49 -252t-135 -137.5t-198 -42.5q-88 0 -168 23.5t-150 58.5z" />
    <glyph glyph-name="K" unicode="K" horiz-adv-x="1308" 
d="M936 1298h324l-856 -876v322zM648 762l648 -762h-304l-508 608zM186 1298h238v-1298h-238v1298z" />
    <glyph glyph-name="L" unicode="L" horiz-adv-x="988" 
d="M422 1298v-1092h534v-206h-770v1298h236z" />
    <glyph glyph-name="M" unicode="M" horiz-adv-x="1749" 
d="M186 1298h338l366 -794h-20l366 794h326v-1298h-238v1026h36l-404 -884h-154l-402 880h22v-1022h-236v1298z" />
    <glyph glyph-name="N" unicode="N" horiz-adv-x="1434" 
d="M182 1298h258l590 -926h-18v926h236v-1298h-240l-628 982h38v-982h-236v1298z" />
    <glyph glyph-name="O" unicode="O" horiz-adv-x="1365" 
d="M682 -28q-173 0 -305.5 76t-207.5 227t-75 375q0 228 75 377.5t207.5 223t305.5 73.5q174 0 307 -75.5t208 -225.5t75 -373q0 -227 -75 -378t-208 -225.5t-307 -74.5zM682 186q159 0 252.5 120t93.5 346q0 218 -93.5 339t-252.5 121q-156 0 -250 -121.5t-94 -340.5
q0 -225 94 -344.5t250 -119.5z" />
    <glyph glyph-name="P" unicode="P" horiz-adv-x="1161" 
d="M180 0v1298h458q219 0 341.5 -108t122.5 -306q0 -196 -122.5 -304t-341.5 -108h-220v-472h-238zM418 678h220q110 0 166 58t56 148q0 92 -56 151t-166 59h-220v-416z" />
    <glyph glyph-name="Q" unicode="Q" horiz-adv-x="1372" 
d="M682 -28q-173 0 -305.5 76t-207.5 227t-75 375q0 228 75 377.5t207.5 223t305.5 73.5q174 0 307 -75.5t208 -225.5t75 -373q0 -227 -75 -378t-208 -225.5t-307 -74.5zM1080 -360q-99 0 -183 53t-147 149l-134 202l188 88l116 -180q29 -42 66 -59t76 -19q50 0 96.5 12.5
t97.5 33.5v-244q-47 -19 -89.5 -27.5t-86.5 -8.5zM682 186q159 0 252.5 120t93.5 346q0 218 -93.5 339t-252.5 121q-156 0 -250 -121.5t-94 -340.5q0 -225 94 -344.5t250 -119.5z" />
    <glyph glyph-name="R" unicode="R" horiz-adv-x="1287" 
d="M186 0v1298h480q233 0 357.5 -109t124.5 -289q0 -177 -124.5 -285.5t-357.5 -108.5h-244v-506h-236zM888 0l-344 608h252l400 -608h-308zM422 664h220q130 0 197 59.5t67 154.5q0 97 -61 156.5t-179 59.5h-244v-430z" />
    <glyph glyph-name="S" unicode="S" horiz-adv-x="1275" 
d="M638 -28q-135 0 -248.5 47t-184 143t-75.5 244h232q0 -75 37 -123t99.5 -71.5t137.5 -23.5q72 0 128.5 19t89 54.5t32.5 84.5q0 65 -39.5 102t-126.5 68l-256 102q-150 59 -230 137t-80 215q0 158 125 256t349 98q218 0 337 -101.5t135 -282.5h-232q-13 77 -70 123.5
t-170 46.5q-100 0 -158 -41.5t-58 -104.5q0 -54 36.5 -85.5t113.5 -60.5l284 -110q144 -56 221 -141t77 -213q0 -117 -59 -202.5t-172 -132.5t-275 -47z" />
    <glyph glyph-name="T" unicode="T" horiz-adv-x="1063" 
d="M12 1094v204h1040v-204h-455l53 54v-1148h-236v1148l53 -54h-455z" />
    <glyph glyph-name="U" unicode="U" horiz-adv-x="1380" 
d="M166 1298h236v-808q0 -160 81.5 -231t208.5 -71q128 0 209 71t81 231v808h236v-808q0 -164 -63 -280t-180.5 -177t-282.5 -61t-282.5 61t-180.5 177t-63 280v808z" />
    <glyph glyph-name="V" unicode="V" horiz-adv-x="1205" 
d="M590 258l332 1040h248l-446 -1298h-248l-440 1298h250l328 -1040h-24z" />
    <glyph glyph-name="W" unicode="W" horiz-adv-x="1893" 
d="M20 1298h264l314 -1090h-60l310 1004h160l322 -988h-54l330 1074h266l-446 -1298h-248l-254 766h22l-254 -766h-248z" />
    <glyph glyph-name="X" unicode="X" horiz-adv-x="1367" 
d="M68 0l458 646l-460 652h290l328 -468l284 468h286l-438 -648l482 -650h-296l-342 462l-306 -462h-286z" />
    <glyph glyph-name="Y" unicode="Y" horiz-adv-x="1173" 
d="M14 1298h280l310 -558h-46l322 558h278l-462 -762v-536h-236v536z" />
    <glyph glyph-name="Z" unicode="Z" horiz-adv-x="1257" 
d="M146 0v204l754 962v-86l-754 2v216h982v-202l-708 -908l-6 30l714 -2v-216h-982z" />
    <glyph glyph-name="bracketleft" unicode="[" horiz-adv-x="704" 
d="M186 -282v1862h494v-214h-258v-1434h258v-214h-494z" />
    <glyph glyph-name="backslash" unicode="\" horiz-adv-x="943" 
d="M82 1490l514 -1650h242l-518 1650h-238z" />
    <glyph glyph-name="bracketright" unicode="]" horiz-adv-x="671" 
d="M486 -282v1862h-494v-214h258v-1434h-258v-214h494z" />
    <glyph glyph-name="asciicircum" unicode="^" horiz-adv-x="1054" 
d="M40 436l396 770h190l396 -770h-260l-276 590h90l-276 -590h-260z" />
    <glyph glyph-name="underscore" unicode="_" horiz-adv-x="1536" 
d="M110 0v206h1318v-206h-1318z" />
    <glyph glyph-name="grave" unicode="`" horiz-adv-x="720" 
d="M512 1117l-418 337l157 128l374 -373z" />
    <glyph glyph-name="a" unicode="a" horiz-adv-x="1170" 
d="M804 0l-30 236v390q0 102 -41.5 151t-140.5 49q-57 0 -99 -17t-64.5 -48.5t-22.5 -76.5h-258q0 110 53 179.5t152.5 102t238.5 32.5q126 0 220 -40.5t146 -124.5t52 -215v-618h-206zM486 -28q-125 0 -208.5 43.5t-125.5 114.5t-42 154q0 92 48.5 154.5t137.5 94t210 31.5
q79 0 149.5 -12t140.5 -32v-138q-55 18 -120 28t-122 10q-84 0 -138 -31t-54 -105q0 -54 44 -93t140 -39q73 0 124 32t77.5 80t26.5 96h56q0 -105 -39 -193.5t-115.5 -141.5t-189.5 -53z" />
    <glyph glyph-name="b" unicode="b" horiz-adv-x="1228" 
d="M682 -28q-91 0 -166.5 51t-120.5 152.5t-45 254.5h72q0 -73 33 -128t85 -85.5t108 -30.5q69 0 123 38t85.5 106t31.5 160q0 89 -31 155.5t-85.5 103.5t-125.5 37q-59 0 -110 -28.5t-82.5 -82t-31.5 -129.5h-72q0 147 42.5 248t121 152.5t186.5 51.5q118 0 214.5 -62.5
t154 -177t57.5 -268.5q0 -156 -59.5 -272.5t-160.5 -181t-224 -64.5zM186 0v1372h236v-1132l-82 -240h-154z" />
    <glyph glyph-name="c" unicode="c" horiz-adv-x="1059" 
d="M554 -28q-122 0 -226.5 63.5t-169 179t-64.5 271.5q0 165 64.5 279.5t169 173.5t226.5 59q95 0 167.5 -30.5t123.5 -82t80 -114.5t37 -127l-238 -6q-16 64 -59.5 106t-112.5 42q-57 0 -107 -31.5t-81.5 -97.5t-31.5 -171q0 -100 29.5 -166.5t79.5 -100t111 -33.5
q90 0 131 43.5t41 116.5h238q0 -103 -47 -188t-138 -135.5t-223 -50.5z" />
    <glyph glyph-name="d" unicode="d" horiz-adv-x="1228" 
d="M544 -28q-122 0 -222.5 64.5t-160 181t-59.5 272.5q0 154 57.5 268.5t154 177t214.5 62.5q108 0 187 -51.5t121 -152.5t42 -248h-74q0 76 -31 129.5t-81.5 82t-109.5 28.5q-71 0 -125.5 -37t-85.5 -103.5t-31 -155.5q0 -92 31 -160t85.5 -106t123.5 -38q56 0 107.5 30.5
t84 85.5t32.5 128h74q0 -153 -45.5 -254.5t-121.5 -152.5t-167 -51zM848 0l-44 240v1132h238v-1372h-194z" />
    <glyph glyph-name="e" unicode="e" horiz-adv-x="1060" 
d="M548 -28q-124 0 -227 64t-165 179.5t-62 270.5q0 160 61.5 275t164.5 176t228 61q116 0 200.5 -46.5t136 -126t69.5 -179.5t2 -206h-674v128h507l-46 -30q3 47 -4.5 95t-28.5 88t-59.5 64.5t-98.5 24.5q-72 0 -122 -36t-76 -98t-26 -140v-94q0 -82 24.5 -145t73 -99
t122.5 -36q69 0 116 32t60 96h238q-15 -94 -70.5 -165.5t-143.5 -112t-200 -40.5z" />
    <glyph glyph-name="f" unicode="f" horiz-adv-x="735" 
d="M242 0v1088q0 105 41 171t108.5 97.5t146.5 31.5q49 0 101 -7t101 -17l-46 -182q-25 9 -52 14.5t-52 5.5q-28 0 -53 -10.5t-41 -36.5t-16 -71v-1084h-238zM98 814v156h560v-156h-560z" />
    <glyph glyph-name="g" unicode="g" horiz-adv-x="1164" 
d="M560 -502q-167 0 -285.5 46t-181.5 120.5t-63 161.5q0 103 75 159.5t189 56.5l172 -64q-98 0 -151 -37t-53 -103q0 -69 79.5 -110.5t218.5 -41.5q101 0 175 30t114.5 78t40.5 102q0 36 -24 59t-74 23h-326q-98 0 -178.5 31.5t-128 85t-47.5 119.5q0 61 34 105.5
t92.5 68.5t131.5 24l60 -78q-29 0 -55.5 -11.5t-43.5 -33.5t-17 -55q0 -40 34 -65t118 -25h326q155 0 243.5 -57t88.5 -175q0 -105 -69 -199.5t-195.5 -154.5t-299.5 -60zM572 300q-115 0 -210.5 43.5t-152.5 121.5t-57 183q0 107 57 186t152.5 121.5t210.5 42.5
q112 0 207 -42.5t153 -121.5t58 -186q0 -105 -58 -183t-153 -121.5t-207 -43.5zM574 464q92 0 138 53t46 131q0 84 -46.5 135t-139.5 51q-90 0 -138 -51t-48 -135q0 -78 48.5 -131t139.5 -53zM916 842l-108 62q0 87 40.5 152.5t108 101.5t149.5 36l-12 -226
q-87 0 -132.5 -30.5t-45.5 -95.5z" />
    <glyph glyph-name="h" unicode="h" horiz-adv-x="1246" 
d="M852 0v568q0 108 -52 163t-136 55q-71 0 -125.5 -39t-85.5 -117.5t-31 -195.5h-78q0 189 47 314.5t133 187.5t202 62q120 0 200.5 -53.5t121 -150.5t40.5 -226v-568h-236zM186 0v1372h236v-1372h-236z" />
    <glyph glyph-name="i" unicode="i" horiz-adv-x="656" 
d="M324 1148q-69 0 -107.5 36.5t-38.5 101.5q0 63 38.5 100.5t107.5 37.5q68 0 107 -37.5t39 -100.5q0 -65 -39 -101.5t-107 -36.5zM206 0v974h236v-974h-236z" />
    <glyph glyph-name="j" unicode="j" horiz-adv-x="670" 
d="M336 1148q-67 0 -106.5 36.5t-39.5 101.5q0 63 39.5 100.5t106.5 37.5q68 0 107 -37.5t39 -100.5q0 -65 -39 -101.5t-107 -36.5zM128 -502q-78 0 -144.5 17t-135.5 45l4 204q51 -25 107.5 -42.5t110.5 -17.5q73 0 111.5 42t38.5 142v1086h236v-1090q0 -208 -86.5 -297
t-241.5 -89z" />
    <glyph glyph-name="k" unicode="k" horiz-adv-x="1183" 
d="M186 0v1372h236v-1372h-236zM390 602l416 368h320l-736 -612v244zM862 0l-434 618l224 54l498 -672h-288z" />
    <glyph glyph-name="l" unicode="l" horiz-adv-x="609" 
d="M186 0v1372h236v-1372h-236z" />
    <glyph glyph-name="m" unicode="m" horiz-adv-x="1898" 
d="M1504 0v568q0 108 -52 163t-136 55q-106 0 -167 -86t-61 -260h-98q0 153 28.5 259.5t81 172t123.5 96t157 30.5q119 0 199.5 -53.5t121.5 -150.5t41 -226v-568h-238zM186 0v970h206l26 -166q48 97 127 145.5t181 48.5q120 0 200.5 -53.5t121 -150.5t40.5 -226v-568h-236
v568q0 108 -52 163t-136 55q-71 0 -125.5 -39t-85.5 -117.5t-31 -195.5v-434h-236z" />
    <glyph glyph-name="n" unicode="n" horiz-adv-x="1246" 
d="M852 0v568q0 108 -52 163t-136 55q-71 0 -125.5 -39t-85.5 -117.5t-31 -195.5h-78q0 189 47 314.5t133 187.5t202 62q120 0 200.5 -53.5t121 -150.5t40.5 -226v-568h-236zM186 0v970h206l30 -192v-778h-236z" />
    <glyph glyph-name="o" unicode="o" horiz-adv-x="1132" 
d="M568 -28q-133 0 -240.5 57t-170.5 170.5t-63 284.5q0 174 63 288t170.5 170t240.5 56q131 0 237.5 -56t169.5 -170t63 -288q0 -171 -63 -284.5t-169.5 -170.5t-237.5 -57zM560 178q70 0 124.5 34.5t86 102.5t31.5 169q0 154 -60.5 232t-165.5 78q-71 0 -126 -34.5
t-86.5 -103.5t-31.5 -172q0 -152 61.5 -229t166.5 -77z" />
    <glyph glyph-name="p" unicode="p" horiz-adv-x="1220" 
d="M672 -28q-107 0 -182 46t-114.5 139.5t-39.5 234.5h86q0 -65 30 -111t79.5 -70.5t106.5 -24.5q59 0 116.5 32.5t95.5 99t38 168.5q0 93 -32 160.5t-87.5 103.5t-126.5 36q-60 0 -110 -27t-80 -78.5t-30 -124.5h-86q0 153 47 250.5t126 144.5t173 47q115 0 216.5 -61
t164.5 -175.5t63 -275.5q0 -162 -64 -277t-167.5 -176t-222.5 -61zM186 -474v1444h194l42 -240v-1204h-236z" />
    <glyph glyph-name="q" unicode="q" horiz-adv-x="1220" 
d="M548 -28q-119 0 -222.5 61t-167.5 176t-64 277q0 161 63 275.5t164 175.5t215 61q94 0 173 -47t127 -144.5t48 -250.5h-88q0 73 -29.5 124.5t-79 78.5t-109.5 27q-71 0 -126.5 -36t-87.5 -103.5t-32 -160.5q0 -102 37.5 -168.5t95 -99t117.5 -32.5q55 0 104 24.5
t79.5 70.5t30.5 111h46q0 -124 -29 -218.5t-93.5 -148t-171.5 -53.5zM1098 -502q-163 41 -232.5 128t-69.5 242v862l84 240h152v-1120q0 -59 12 -92.5t41.5 -52.5t80.5 -35z" />
    <glyph glyph-name="r" unicode="r" horiz-adv-x="785" 
d="M186 0v974h236v-974h-236zM364 426q0 191 43 316t115.5 185.5t161.5 60.5q24 0 45.5 -3t42.5 -9l-4 -236q-26 6 -56 10t-54 4q-78 0 -130.5 -37.5t-79 -110.5t-26.5 -180h-58z" />
    <glyph glyph-name="s" unicode="s" horiz-adv-x="1055" 
d="M548 -28q-140 0 -240.5 38.5t-154.5 111t-55 174.5h218q3 -72 57 -105t147 -33q51 0 90.5 15t61.5 41t22 58q0 41 -29.5 64.5t-94.5 43.5l-212 76q-114 41 -175 108t-61 160q0 123 111.5 198.5t298.5 75.5q186 0 287.5 -81.5t104.5 -206.5h-222q-5 48 -46 76t-124 28
q-75 0 -117.5 -30.5t-42.5 -71.5q0 -69 118 -104l230 -86q112 -38 174 -98t62 -152q0 -77 -51.5 -145.5t-143.5 -111.5t-213 -43z" />
    <glyph glyph-name="t" unicode="t" horiz-adv-x="789" 
d="M514 -28q-86 0 -157.5 32t-114 98t-42.5 168v958h236v-950q0 -120 114 -120q35 0 70 8t80 24l34 -166q-56 -22 -109 -37t-111 -15zM64 814v156h636v-156h-636z" />
    <glyph glyph-name="u" unicode="u" horiz-adv-x="1254" 
d="M832 974h236v-974h-236v974zM166 974h236v-596q0 -95 47 -142.5t129 -47.5q70 0 127.5 36.5t92 108t34.5 177.5h64q0 -178 -46 -295t-127 -175t-187 -58q-104 0 -188 37t-133 119t-49 216v620z" />
    <glyph glyph-name="v" unicode="v" horiz-adv-x="1038" 
d="M24 970h272l232 -768h-18l232 768h272l-362 -970h-266z" />
    <glyph glyph-name="w" unicode="w" horiz-adv-x="1516" 
d="M24 970h246l210 -736h-24l198 684h214l198 -686h-24l210 738h236l-320 -970h-232l-198 644h36l-194 -644h-234z" />
    <glyph glyph-name="x" unicode="x" horiz-adv-x="1107" 
d="M32 0l378 484l-378 490h290l238 -312l226 312h288l-376 -490l376 -484h-288l-242 312l-222 -312h-290z" />
    <glyph glyph-name="y" unicode="y" horiz-adv-x="1007" 
d="M38 970h268l258 -764h-42l222 764h240l-372 -1146q-57 -172 -140.5 -249t-203.5 -77q-69 0 -134.5 15.5t-133.5 48.5v208q55 -34 106.5 -50t103.5 -16q47 0 82.5 25.5t61.5 71t44 105.5l30 94z" />
    <glyph glyph-name="z" unicode="z" horiz-adv-x="990" 
d="M114 0v192l504 588h-504v190h764v-190l-488 -588h488v-192h-764z" />
    <glyph glyph-name="braceleft" unicode="{" horiz-adv-x="782" 
d="M774 -312q-182 0 -296 65t-167 178.5t-53 260.5v182q0 83 -13.5 114.5t-52.5 31.5h-50v238h50q39 0 52.5 31t13.5 115v184q0 147 53 259.5t167 176.5t296 64v-212q-147 0 -214.5 -71t-67.5 -221v-192q0 -96 -37.5 -157.5t-94.5 -90.5v-10q57 -29 94.5 -90.5t37.5 -157.5
v-192q0 -150 67.5 -221t214.5 -71v-214z" />
    <glyph glyph-name="bar" unicode="|" horiz-adv-x="609" 
d="M186 -244v1784h236v-1784h-236z" />
    <glyph glyph-name="braceright" unicode="}" horiz-adv-x="782" 
d="M8 -312q182 0 296 65t167 178.5t53 260.5v182q0 83 13.5 114.5t52.5 31.5h50v238h-50q-39 0 -52.5 31t-13.5 115v184q0 147 -53 259.5t-167 176.5t-296 64v-212q147 0 214.5 -71t67.5 -221v-192q0 -96 37.5 -157.5t94.5 -90.5v-10q-57 -29 -94.5 -90.5t-37.5 -157.5v-192
q0 -150 -67.5 -221t-214.5 -71v-214z" />
    <glyph glyph-name="asciitilde" unicode="~" horiz-adv-x="1139" 
d="M240 408l-126 68q35 129 96 204.5t160 75.5q44 0 93.5 -14t122.5 -42q73 -29 112.5 -40.5t69.5 -11.5q39 0 72.5 28t57.5 82l126 -80q-40 -127 -110.5 -190.5t-163.5 -63.5q-33 0 -82 13t-122 43q-73 25 -110 37.5t-68 12.5q-39 0 -71 -28t-57 -94z" />
    <glyph glyph-name="uni00A0" unicode="&#xa0;" horiz-adv-x="506" 
 />
    <glyph glyph-name="exclamdown" unicode="&#xa1;" horiz-adv-x="586" 
d="M198 866l-26 -888h256l-28 888h-202zM301 1322q-73 0 -119 -44.5t-46 -113.5q0 -66 46 -112t119 -46q71 0 119 46t48 112q0 69 -48 113.5t-119 44.5z" />
    <glyph glyph-name="cent" unicode="&#xa2;" horiz-adv-x="1057" 
d="M452 -216v258h194v-258h-194zM452 940v234h194v-234h-194zM554 -28q-122 0 -226.5 63.5t-169 179t-64.5 271.5q0 165 64.5 279.5t169 173.5t226.5 59q95 0 167.5 -30.5t123.5 -82t80 -114.5t37 -127l-238 -6q-16 64 -59.5 106t-112.5 42q-57 0 -107 -31.5t-81.5 -97.5
t-31.5 -171q0 -100 29.5 -166.5t79.5 -100t111 -33.5q90 0 131 43.5t41 116.5h238q0 -103 -47 -188t-138 -135.5t-223 -50.5z" />
    <glyph glyph-name="sterling" unicode="&#xa3;" horiz-adv-x="1203" 
d="M108 144v68q74 0 104 43t30 131v502q0 144 51 241t142.5 146t214.5 49q165 0 262.5 -88t121.5 -262h-232q-9 66 -49.5 101t-102.5 35q-78 0 -125 -54t-47 -168v-486q0 -132 -80 -195t-290 -63zM44 0v212h634q99 0 142.5 38.5t53.5 117.5h256q-4 -174 -105.5 -271
t-344.5 -97h-636zM76 562v158h744v-158h-744z" />
    <glyph glyph-name="currency" unicode="&#xa4;" 
d="M600 216q-117 0 -213 57.5t-153.5 153.5t-57.5 213t57.5 213t153.5 153.5t213 57.5t213 -57.5t152.5 -153.5t56.5 -213t-56.5 -213t-152.5 -153.5t-213 -57.5zM600 426q59 0 107.5 29t77.5 77.5t29 107.5q0 60 -29 108.5t-77.5 77t-107.5 28.5t-107.5 -28.5t-77.5 -77
t-29 -108.5q0 -59 29 -107.5t77.5 -77.5t107.5 -29zM848 788l-100 100l230 230l100 -98zM340 800l-218 218l98 100l218 -218zM860 480l218 -218l-98 -100l-218 218zM340 480l98 -100l-218 -218l-98 100z" />
    <glyph glyph-name="yen" unicode="&#xa5;" horiz-adv-x="1173" 
d="M460 0v536l-446 762h280l310 -558h-46l322 558h278l-462 -762v-536h-236zM232 170v132h698v-132h-698zM232 384v132h698v-132h-698z" />
    <glyph glyph-name="brokenbar" unicode="&#xa6;" horiz-adv-x="609" 
d="M186 750v790h236v-790h-236zM186 -244v790h236v-790h-236z" />
    <glyph glyph-name="section" unicode="&#xa7;" 
d="M629 472q52 0 91.5 15t61.5 41.5t22 59.5q0 39 -31 62.5t-94 43.5l-211 76q-113 38 -174.5 106t-61.5 159q0 126 110.5 201.5t293.5 75.5q195 0 294.5 -82.5t102.5 -206.5h-222q-3 49 -46 77t-118 28q-81 0 -123 -31t-42 -73q0 -65 117 -102l230 -86q113 -39 174.5 -99
t61.5 -147q0 -80 -51.5 -149.5t-143.5 -112t-213 -42.5zM569 738q-75 0 -117.5 -32t-42.5 -76q0 -65 118 -103l230 -85q111 -39 173 -99t62 -148q0 -79 -49.5 -148.5t-144.5 -112.5t-232 -43q-124 0 -222 38.5t-154 111.5t-55 175h218q1 -72 56.5 -105t137.5 -33
q88 0 136 33t48 82q0 39 -30.5 62.5t-94.5 44.5l-211 75q-115 40 -175.5 108t-60.5 161q0 130 111 202.5t299 72.5v-181z" />
    <glyph glyph-name="dieresis" unicode="&#xa8;" horiz-adv-x="854" 
d="M618 1142q-58 0 -99 38t-41 95t41 95.5t99 38.5q62 0 102 -38.5t40 -95.5t-40 -95t-102 -38zM234 1142q-61 0 -100.5 38t-39.5 93q0 59 39.5 96.5t100.5 37.5q62 0 102 -37.5t40 -96.5q0 -55 -40 -93t-102 -38z" />
    <glyph glyph-name="copyright" unicode="&#xa9;" horiz-adv-x="1421" 
d="M711 -12q-137 0 -257 51.5t-211.5 142.5t-143 211t-51.5 257t51.5 257t143 211.5t211.5 142.5t257 51q136 0 256.5 -51t211.5 -142.5t142.5 -211.5t51.5 -257t-51.5 -257t-142.5 -211t-211.5 -142.5t-256.5 -51.5zM711 106q113 0 211.5 42.5t173 117t117 173.5t42.5 211
q0 113 -42.5 211.5t-117 173.5t-173 117t-211.5 42q-112 0 -211 -42t-174 -117t-117.5 -173.5t-42.5 -211.5q0 -112 42.5 -211t117.5 -173.5t174 -117t211 -42.5zM708 240q-103 0 -180 49.5t-119.5 142t-42.5 221.5q0 133 44.5 223.5t121.5 137t176 46.5q138 0 215 -66.5
t99 -173.5l-152 -28q-19 63 -60 101t-102 38q-52 0 -95 -30.5t-68.5 -92.5t-25.5 -155q0 -88 22.5 -151t64.5 -97t102 -34q77 0 119.5 41t42.5 104h152q0 -131 -84 -203.5t-230 -72.5z" />
    <glyph glyph-name="ordfeminine" unicode="&#xaa;" horiz-adv-x="1170" 
d="M804 0l-30 236v390q0 102 -41.5 151t-140.5 49q-57 0 -99 -17t-64.5 -48.5t-22.5 -76.5h-258q0 110 53 179.5t152.5 102t238.5 32.5q126 0 220 -40.5t146 -124.5t52 -215v-618h-206zM486 -28q-125 0 -208.5 43.5t-125.5 114.5t-42 154q0 92 48.5 154.5t137.5 94t210 31.5
q79 0 149.5 -12t140.5 -32v-138q-55 18 -120 28t-122 10q-84 0 -138 -31t-54 -105q0 -54 44 -93t140 -39q73 0 124 32t77.5 80t26.5 96h56q0 -105 -39 -193.5t-115.5 -141.5t-189.5 -53z" />
    <glyph glyph-name="guillemotleft" unicode="&#xab;" horiz-adv-x="1245" 
d="M315 509l352 342l-159 120l-414 -431l414 -432l159 120l-352 343v-62zM800 509l352 342l-159 120l-414 -431l414 -432l159 120l-352 343v-62z" />
    <glyph glyph-name="logicalnot" unicode="&#xac;" 
d="M219 675h710v-378h-156v252l48 -52h-602v178z" />
    <glyph glyph-name="uni00AD" unicode="&#xad;" 
d="M92 500v206h562v-206h-562z" />
    <glyph glyph-name="registered" unicode="&#xae;" horiz-adv-x="1421" 
d="M711 -12q-137 0 -257 51.5t-211.5 142.5t-143 211t-51.5 257t51.5 257t143 211.5t211.5 142.5t257 51q136 0 256.5 -51t211.5 -142.5t142.5 -211.5t51.5 -257t-51.5 -257t-142.5 -211t-211.5 -142.5t-256.5 -51.5zM711 106q113 0 211.5 42.5t173 117t117 173.5t42.5 211
q0 113 -42.5 211.5t-117 173.5t-173 117t-211.5 42q-112 0 -211 -42t-174 -117t-117.5 -173.5t-42.5 -211.5q0 -112 42.5 -211t117.5 -173.5t174 -117t211 -42.5zM857 291l-197 346h143l228 -346h-174zM457 291v739h273q132 0 203 -62t71 -164q0 -100 -71 -162t-203 -62
h-140v-289h-133zM590 669h126q75 0 112.5 34.5t37.5 87.5q0 56 -34.5 90t-101.5 34h-140v-246z" />
    <glyph glyph-name="macron" unicode="&#xaf;" horiz-adv-x="880" 
d="M95 1361h691v-193h-691v193z" />
    <glyph glyph-name="degree" unicode="&#xb0;" horiz-adv-x="777" 
d="M389 970q-83 0 -151.5 40.5t-109 109.5t-40.5 151q0 84 40.5 151.5t109 108t151.5 40.5t151 -40.5t108.5 -108t40.5 -151.5q0 -82 -40.5 -151t-108.5 -109.5t-151 -40.5zM389 1127q59 0 101 42.5t42 101.5t-42 101.5t-101 42.5q-60 0 -102.5 -42.5t-42.5 -101.5
t42.5 -101.5t102.5 -42.5z" />
    <glyph glyph-name="plusminus" unicode="&#xb1;" horiz-adv-x="1012" 
d="M414 1098h184v-306h278v-152h-278v-304h-184v304h-278v152h278v306zM152 178h710v-178h-710v178z" />
    <glyph glyph-name="uni00B2" unicode="&#xb2;" horiz-adv-x="819" 
d="M120.29 526v133.736q0 65.6641 19.8799 111.447q19.8799 45.7842 59.3379 77.4111q39.458 31.626 99.0977 54.5186l160.243 61.4463q52.4102 21.085 77.4102 51.8076q25.001 30.7236 25.001 75.9043q0 45.1816 -32.832 76.2061t-93.6758 31.0244
q-58.4346 0 -97.8926 -29.2168q-39.459 -29.2178 -45.4824 -85.2422h-157.834q1.80762 80.1211 41.5674 133.134q39.7588 53.0127 106.628 79.2178q66.8682 26.2051 150.604 26.2051q78.917 0 142.773 -29.8193q63.8555 -29.8193 101.507 -83.1338
q37.6514 -53.3135 37.6514 -124.398q0 -60.2422 -21.9883 -106.025q-21.9883 -45.7842 -66.5674 -80.1221q-44.5791 -34.3369 -112.651 -60.8438l-161.448 -62.6514q-46.9883 -18.0723 -68.0732 -40.0605q-21.084 -21.9883 -21.084 -57.5312v-22.8916h446.993v-130.122
h-589.164z" />
    <glyph glyph-name="uni00B3" unicode="&#xb3;" horiz-adv-x="826" 
d="M413.113 509.133q-62.0488 0 -119.881 16.8672t-103.616 50.001q-45.7832 33.1328 -72.5908 82.2295t-26.8076 113.556h149.399q2.40918 -40.9639 24.6992 -70.7842q22.2891 -29.8193 60.543 -45.7832q38.2529 -15.9648 88.2539 -15.9648q73.4941 0 115.062 33.7363
q41.5664 33.7344 41.5664 85.543q0 33.7354 -16.8672 58.1328q-16.8682 24.3984 -51.8076 37.3496q-34.9404 12.9521 -89.1582 12.9521h-103.615v112.05h87.9521q68.6758 0 107.833 29.5186t39.1572 80.1211q0 45.1816 -33.7354 75.6035t-101.206 30.4219
q-54.8203 0 -97.8926 -22.2891q-43.0732 -22.29 -55.1221 -77.7119h-149.398q8.43359 80.1211 48.4941 130.725q40.0605 50.6025 103.917 74.3984q63.8564 23.7949 143.978 23.7949q84.9404 0 151.207 -27.7109q66.2656 -27.7109 104.519 -76.8076
q38.2539 -49.0977 38.2539 -113.556q0 -59.6396 -32.5303 -103.917q-32.5312 -44.2783 -96.3867 -65.9648q71.085 -24.0967 113.856 -71.6875t42.7715 -118.677q0 -69.2773 -38.8555 -122.592q-38.8564 -53.3135 -108.736 -83.4346q-69.8809 -30.1201 -163.255 -30.1201z
" />
    <glyph glyph-name="acute" unicode="&#xb4;" horiz-adv-x="720" 
d="M207 1117l-113 92l374 373l158 -128z" />
    <glyph glyph-name="uni00B5" unicode="&#xb5;" horiz-adv-x="1254" 
d="M832 974h236v-974h-236v974zM166 974h236v-596q0 -95 47 -142.5t129 -47.5q70 0 127.5 36.5t92 108t34.5 177.5h64q0 -178 -46 -295t-127 -175t-187 -58q-104 0 -188 37t-133 119t-49 216v620zM166 -398v1372h236v-1372h-236z" />
    <glyph glyph-name="paragraph" unicode="&#xb6;" 
d="M537 472q-220 0 -342.5 108t-122.5 305q0 198 122.5 305.5t342.5 107.5h451v-212h-324v-614h-127zM543 -252v1550h176v-1550h-176zM846 -252v1550h175v-1550h-175z" />
    <glyph glyph-name="periodcentered" unicode="&#xb7;" horiz-adv-x="430" 
d="M48 532q0 68 46 114t118 46t120 -46t48 -114q0 -67 -48 -111.5t-120 -44.5t-118 45t-46 111z" />
    <glyph glyph-name="cedilla" unicode="&#xb8;" horiz-adv-x="628" 
d="M94 -367l33 83q68 -32 120.5 -36.5t84 13t34.5 49.5q3 28 -19.5 49.5t-63 38.5t-96.5 29l78 220l104 -15l-71 -199l-31 60q97 -15 157 -45t86.5 -69t23.5 -83q-4 -58 -49.5 -93.5t-113.5 -47.5t-141.5 -1t-135.5 47z" />
    <glyph glyph-name="uni00B9" unicode="&#xb9;" horiz-adv-x="537" 
d="M242.641 1305.76h107.23v-786.757h-142.17v616.875q-31.9287 -14.458 -62.6514 -22.2891q-30.7236 -7.83203 -61.4463 -7.83203v136.146q40.9639 4.2168 79.5186 18.9766q38.5547 14.7588 79.5186 44.8799z" />
    <glyph glyph-name="ordmasculine" unicode="&#xba;" horiz-adv-x="1132" 
d="M568 -28q-133 0 -240.5 57t-170.5 170.5t-63 284.5q0 174 63 288t170.5 170t240.5 56q131 0 237.5 -56t169.5 -170t63 -288q0 -171 -63 -284.5t-169.5 -170.5t-237.5 -57zM560 178q70 0 124.5 34.5t86 102.5t31.5 169q0 154 -60.5 232t-165.5 78q-71 0 -126 -34.5
t-86.5 -103.5t-31.5 -172q0 -152 61.5 -229t166.5 -77z" />
    <glyph glyph-name="guillemotright" unicode="&#xbb;" horiz-adv-x="1245" 
d="M930 509l-352 342l159 120l414 -431l-414 -432l-159 120l352 343v-62zM446 509l-352 342l159 120l414 -431l-414 -432l-159 120l352 343v-62z" />
    <glyph glyph-name="onequarter" unicode="&#xbc;" horiz-adv-x="1853" 
d="M243 1387h107v-787h-142v617q-32 -15 -62.5 -22.5t-61.5 -8.5v137q41 4 80 19t79 45zM245.499 -24.0254l978.003 1402.76h185.311l-981.065 -1402.76h-182.248zM1551 790h136v-495h137v-122h-137v-173h-140v173h-397v108zM1553 579l-234 -298h234v298z" />
    <glyph glyph-name="onehalf" unicode="&#xbd;" horiz-adv-x="1925" 
d="M243 1387h107v-787h-142v617q-32 -15 -62.5 -22.5t-61.5 -8.5v137q41 4 80 19t79 45zM245.499 -24.0254l978.003 1402.76h185.311l-981.065 -1402.76h-182.248zM1226 0v134q0 98 44.5 153.5t134.5 89.5l159 62q53 20 78 51t25 77q0 45 -33 76t-93 31t-99 -29.5t-45 -85.5
h-157q1 80 41 133t106.5 79.5t150.5 26.5q79 0 143 -29.5t101.5 -83t37.5 -124.5q0 -91 -49.5 -149.5t-151.5 -98.5l-162 -62q-47 -18 -68 -40t-21 -58v-23h447v-130h-589z" />
    <glyph glyph-name="threequarters" unicode="&#xbe;" horiz-adv-x="2140" 
d="M413 572q-83 0 -156.5 30t-120 88.5t-46.5 143.5h149q4 -61 51.5 -96.5t122.5 -35.5q73 0 115 34t42 85t-38.5 80t-119.5 29h-104v112h88q69 0 108 29.5t39 80.5q0 45 -33.5 75.5t-101.5 30.5q-55 0 -98 -22.5t-55 -77.5h-149q13 119 94.5 174t201.5 55q128 0 211 -61
t83 -158q0 -59 -33 -103.5t-96 -65.5q71 -25 113.5 -72.5t42.5 -118.5q0 -104 -85 -170t-225 -66zM533.499 -24.0254l978.003 1402.76h185.311l-981.065 -1402.76h-182.248zM1839 790h136v-495h137v-122h-137v-173h-140v173h-397v108zM1841 579l-234 -298h234v298z" />
    <glyph glyph-name="questiondown" unicode="&#xbf;" horiz-adv-x="1034" 
d="M668 906v-80q0 -87 -20.5 -143t-64 -94.5t-115.5 -74.5q-63 -32 -98 -59.5t-48.5 -56.5t-13.5 -68q0 -63 51 -104.5t139 -41.5q105 0 161.5 46.5t64.5 123.5h246q-11 -174 -128.5 -279t-333.5 -105q-142 0 -245 48t-159 130t-56 184q0 104 52.5 176t163.5 128
q65 33 101.5 62t51.5 63.5t15 86.5v58h236zM544 1322q73 0 118.5 -45t45.5 -110q0 -68 -45.5 -113.5t-117.5 -45.5q-73 0 -121 45.5t-48 112.5q0 66 48 111t120 45z" />
    <glyph glyph-name="Agrave" unicode="&#xc0;" horiz-adv-x="1251" 
d="M44 0l442 1298h296l424 -1298h-248l-90 280h-482l-92 -280h-250zM446 458h366l-182 558zM789 1443l-418 337l157 128l374 -373z" />
    <glyph glyph-name="Aacute" unicode="&#xc1;" horiz-adv-x="1251" 
d="M44 0l442 1298h296l424 -1298h-248l-90 280h-482l-92 -280h-250zM446 458h366l-182 558zM573 1440l-113 92l374 373l158 -128z" />
    <glyph glyph-name="Acircumflex" unicode="&#xc2;" horiz-adv-x="1251" 
d="M44 0l442 1298h296l424 -1298h-248l-90 280h-482l-92 -280h-250zM446 458h366l-182 558zM420 1427l-139 110l356 305l357 -305l-139 -110l-260 234h83z" />
    <glyph glyph-name="Atilde" unicode="&#xc3;" horiz-adv-x="1251" 
d="M44 0l442 1298h296l424 -1298h-248l-90 280h-482l-92 -280h-250zM446 458h366l-182 558zM386 1449l-94 57q24 121 80.5 188.5t133.5 67.5q29 0 60.5 -11t85.5 -39q51 -26 76.5 -37t49.5 -11q29 0 57 23.5t49 74.5l100 -66q-14 -72 -45.5 -127.5t-72.5 -87.5t-82 -32
q-36 0 -71.5 14t-92.5 42q-47 26 -70 35t-44 9q-32 0 -61.5 -20.5t-58.5 -79.5z" />
    <glyph glyph-name="Adieresis" unicode="&#xc4;" horiz-adv-x="1251" 
d="M44 0l442 1298h296l424 -1298h-248l-90 280h-482l-92 -280h-250zM446 458h366l-182 558zM829 1468q-58 0 -99 38t-41 95t41 95.5t99 38.5q62 0 102 -38.5t40 -95.5t-40 -95t-102 -38zM445 1468q-61 0 -100.5 38t-39.5 93q0 59 39.5 96.5t100.5 37.5q62 0 102 -37.5
t40 -96.5q0 -55 -40 -93t-102 -38z" />
    <glyph glyph-name="Aring" unicode="&#xc5;" horiz-adv-x="1251" 
d="M44 0l442 1298h296l424 -1298h-248l-90 280h-482l-92 -280h-250zM446 458h366l-182 558zM639 1402q-65 0 -119.5 32t-86.5 86.5t-32 119.5t32 119t86 86.5t120 32.5q65 0 119 -32.5t86.5 -86.5t32.5 -119t-32.5 -119t-86.5 -86.5t-119 -32.5zM639 1560q34 0 57 23t23 57
t-23 57.5t-57 23.5t-57 -23.5t-23 -57.5t23 -57t57 -23z" />
    <glyph glyph-name="AE" unicode="&#xc6;" horiz-adv-x="1766" 
d="M1611 1298v-204h-590l40 36v-472l-40 90h553v-204h-553l40 66v-509l-40 106h590v-207h-786v362l40 -82h-519l114 77l-143 -357h-245l519 1298h1020zM865 458l-40 -66l-1 735l41 -33h-168l93 89l-313 -782l-66 57h454z" />
    <glyph glyph-name="Ccedilla" unicode="&#xc7;" horiz-adv-x="1267" 
d="M658 -28q-171 0 -297.5 81.5t-196.5 233.5t-70 365q0 220 72.5 369.5t200 226t291.5 76.5q227 0 354.5 -110t163.5 -286l-252 -46q-31 102 -99 165t-167 63q-87 0 -157 -50.5t-111.5 -152.5t-41.5 -255q0 -144 36.5 -248t105.5 -160t168 -56q127 0 196.5 67.5t69.5 172.5
h252q0 -145 -62.5 -246.5t-178.5 -155.5t-277 -54zM468 -367l33 83q68 -32 120.5 -36.5t84 13t34.5 49.5q3 28 -19.5 49.5t-63 38.5t-96.5 29l78 220l104 -15l-71 -199l-31 60q97 -15 157 -45t86.5 -69t23.5 -83q-4 -58 -49.5 -93.5t-113.5 -47.5t-141.5 -1t-135.5 47z" />
    <glyph glyph-name="Egrave" unicode="&#xc8;" horiz-adv-x="1173" 
d="M184 0v1298h834v-204h-598v-342h562v-204h-562v-342h598v-206h-834zM737 1443l-418 337l157 128l374 -373z" />
    <glyph glyph-name="Eacute" unicode="&#xc9;" horiz-adv-x="1173" 
d="M184 0v1298h834v-204h-598v-342h562v-204h-562v-342h598v-206h-834zM522 1440l-113 92l374 373l158 -128z" />
    <glyph glyph-name="Ecircumflex" unicode="&#xca;" horiz-adv-x="1173" 
d="M184 0v1298h834v-204h-598v-342h562v-204h-562v-342h598v-206h-834zM369 1427l-139 110l356 305l357 -305l-139 -110l-260 234h83z" />
    <glyph glyph-name="Edieresis" unicode="&#xcb;" horiz-adv-x="1173" 
d="M184 0v1298h834v-204h-598v-342h562v-204h-562v-342h598v-206h-834zM777 1468q-58 0 -99 38t-41 95t41 95.5t99 38.5q62 0 102 -38.5t40 -95.5t-40 -95t-102 -38zM393 1468q-61 0 -100.5 38t-39.5 93q0 59 39.5 96.5t100.5 37.5q62 0 102 -37.5t40 -96.5q0 -55 -40 -93
t-102 -38z" />
    <glyph glyph-name="Igrave" unicode="&#xcc;" horiz-adv-x="609" 
d="M186 0v1298h236v-1298h-236zM455 1443l-418 337l157 128l374 -373z" />
    <glyph glyph-name="Iacute" unicode="&#xcd;" horiz-adv-x="609" 
d="M186 0v1298h236v-1298h-236zM240 1440l-113 92l374 373l158 -128z" />
    <glyph glyph-name="Icircumflex" unicode="&#xce;" horiz-adv-x="609" 
d="M186 0v1298h236v-1298h-236zM87 1427l-139 110l356 305l357 -305l-139 -110l-260 234h83z" />
    <glyph glyph-name="Idieresis" unicode="&#xcf;" horiz-adv-x="609" 
d="M186 0v1298h236v-1298h-236zM495 1468q-58 0 -99 38t-41 95t41 95.5t99 38.5q62 0 102 -38.5t40 -95.5t-40 -95t-102 -38zM111 1468q-61 0 -100.5 38t-39.5 93q0 59 39.5 96.5t100.5 37.5q62 0 102 -37.5t40 -96.5q0 -55 -40 -93t-102 -38z" />
    <glyph glyph-name="Eth" unicode="&#xd0;" horiz-adv-x="1373" 
d="M44 751h633v-204h-633v204zM186 1298h420q198 0 347 -79.5t232 -225.5t83 -345q0 -197 -83 -342.5t-232 -225.5t-347 -80h-420v1298zM422 1084v-872h184q126 0 217.5 57t141 155.5t49.5 223.5q0 127 -49.5 225t-141 154.5t-217.5 56.5h-184z" />
    <glyph glyph-name="Ntilde" unicode="&#xd1;" horiz-adv-x="1434" 
d="M182 1298h258l590 -926h-18v926h236v-1298h-240l-628 982h38v-982h-236v1298zM465 1449l-94 57q24 121 80.5 188.5t133.5 67.5q29 0 60.5 -11t85.5 -39q51 -26 76.5 -37t49.5 -11q29 0 57 23.5t49 74.5l100 -66q-14 -72 -45.5 -127.5t-72.5 -87.5t-82 -32q-36 0 -71.5 14
t-92.5 42q-47 26 -70 35t-44 9q-32 0 -61.5 -20.5t-58.5 -79.5z" />
    <glyph glyph-name="Ograve" unicode="&#xd2;" horiz-adv-x="1365" 
d="M682 -28q-173 0 -305.5 76t-207.5 227t-75 375q0 228 75 377.5t207.5 223t305.5 73.5q174 0 307 -75.5t208 -225.5t75 -373q0 -227 -75 -378t-208 -225.5t-307 -74.5zM682 186q159 0 252.5 120t93.5 346q0 218 -93.5 339t-252.5 121q-156 0 -250 -121.5t-94 -340.5
q0 -225 94 -344.5t250 -119.5zM837 1443l-418 337l157 128l374 -373z" />
    <glyph glyph-name="Oacute" unicode="&#xd3;" horiz-adv-x="1365" 
d="M682 -28q-173 0 -305.5 76t-207.5 227t-75 375q0 228 75 377.5t207.5 223t305.5 73.5q174 0 307 -75.5t208 -225.5t75 -373q0 -227 -75 -378t-208 -225.5t-307 -74.5zM682 186q159 0 252.5 120t93.5 346q0 218 -93.5 339t-252.5 121q-156 0 -250 -121.5t-94 -340.5
q0 -225 94 -344.5t250 -119.5zM622 1440l-113 92l374 373l158 -128z" />
    <glyph glyph-name="Ocircumflex" unicode="&#xd4;" horiz-adv-x="1365" 
d="M682 -28q-173 0 -305.5 76t-207.5 227t-75 375q0 228 75 377.5t207.5 223t305.5 73.5q174 0 307 -75.5t208 -225.5t75 -373q0 -227 -75 -378t-208 -225.5t-307 -74.5zM682 186q159 0 252.5 120t93.5 346q0 218 -93.5 339t-252.5 121q-156 0 -250 -121.5t-94 -340.5
q0 -225 94 -344.5t250 -119.5zM469 1427l-139 110l356 305l357 -305l-139 -110l-260 234h83z" />
    <glyph glyph-name="Otilde" unicode="&#xd5;" horiz-adv-x="1365" 
d="M682 -28q-173 0 -305.5 76t-207.5 227t-75 375q0 228 75 377.5t207.5 223t305.5 73.5q174 0 307 -75.5t208 -225.5t75 -373q0 -227 -75 -378t-208 -225.5t-307 -74.5zM682 186q159 0 252.5 120t93.5 346q0 218 -93.5 339t-252.5 121q-156 0 -250 -121.5t-94 -340.5
q0 -225 94 -344.5t250 -119.5zM434 1449l-94 57q24 121 80.5 188.5t133.5 67.5q29 0 60.5 -11t85.5 -39q51 -26 76.5 -37t49.5 -11q29 0 57 23.5t49 74.5l100 -66q-14 -72 -45.5 -127.5t-72.5 -87.5t-82 -32q-36 0 -71.5 14t-92.5 42q-47 26 -70 35t-44 9q-32 0 -61.5 -20.5
t-58.5 -79.5z" />
    <glyph glyph-name="Odieresis" unicode="&#xd6;" horiz-adv-x="1365" 
d="M682 -28q-173 0 -305.5 76t-207.5 227t-75 375q0 228 75 377.5t207.5 223t305.5 73.5q174 0 307 -75.5t208 -225.5t75 -373q0 -227 -75 -378t-208 -225.5t-307 -74.5zM682 186q159 0 252.5 120t93.5 346q0 218 -93.5 339t-252.5 121q-156 0 -250 -121.5t-94 -340.5
q0 -225 94 -344.5t250 -119.5zM877 1468q-58 0 -99 38t-41 95t41 95.5t99 38.5q62 0 102 -38.5t40 -95.5t-40 -95t-102 -38zM493 1468q-61 0 -100.5 38t-39.5 93q0 59 39.5 96.5t100.5 37.5q62 0 102 -37.5t40 -96.5q0 -55 -40 -93t-102 -38z" />
    <glyph glyph-name="multiply" unicode="&#xd7;" horiz-adv-x="1088" 
d="M284 90l-166 168l260 260l-260 258l166 168l260 -260l260 260l168 -168l-262 -258l262 -260l-168 -168l-260 260z" />
    <glyph glyph-name="Oslash" unicode="&#xd8;" horiz-adv-x="1365" 
d="M60 0l1021 1299h199l-1024 -1299h-196zM682 -28q-173 0 -306 76t-207.5 227t-74.5 375q0 228 74.5 377.5t207.5 223t306 73.5q174 0 307 -75.5t207.5 -225.5t74.5 -373q0 -227 -74.5 -378t-207.5 -225.5t-307 -74.5zM682 186q159 0 252 120t93 346q0 218 -93 339
t-252 121q-156 0 -250 -121.5t-94 -340.5q0 -225 94 -344.5t250 -119.5z" />
    <glyph glyph-name="Ugrave" unicode="&#xd9;" horiz-adv-x="1380" 
d="M166 1298h236v-808q0 -160 81.5 -231t208.5 -71q128 0 209 71t81 231v808h236v-808q0 -164 -63 -280t-180.5 -177t-282.5 -61t-282.5 61t-180.5 177t-63 280v808zM841 1443l-418 337l157 128l374 -373z" />
    <glyph glyph-name="Uacute" unicode="&#xda;" horiz-adv-x="1380" 
d="M166 1298h236v-808q0 -160 81.5 -231t208.5 -71q128 0 209 71t81 231v808h236v-808q0 -164 -63 -280t-180.5 -177t-282.5 -61t-282.5 61t-180.5 177t-63 280v808zM625 1440l-113 92l374 373l158 -128z" />
    <glyph glyph-name="Ucircumflex" unicode="&#xdb;" horiz-adv-x="1380" 
d="M166 1298h236v-808q0 -160 81.5 -231t208.5 -71q128 0 209 71t81 231v808h236v-808q0 -164 -63 -280t-180.5 -177t-282.5 -61t-282.5 61t-180.5 177t-63 280v808zM472 1427l-139 110l356 305l357 -305l-139 -110l-260 234h83z" />
    <glyph glyph-name="Udieresis" unicode="&#xdc;" horiz-adv-x="1380" 
d="M166 1298h236v-808q0 -160 81.5 -231t208.5 -71q128 0 209 71t81 231v808h236v-808q0 -164 -63 -280t-180.5 -177t-282.5 -61t-282.5 61t-180.5 177t-63 280v808zM881 1468q-58 0 -99 38t-41 95t41 95.5t99 38.5q62 0 102 -38.5t40 -95.5t-40 -95t-102 -38zM497 1468
q-61 0 -100.5 38t-39.5 93q0 59 39.5 96.5t100.5 37.5q62 0 102 -37.5t40 -96.5q0 -55 -40 -93t-102 -38z" />
    <glyph glyph-name="Yacute" unicode="&#xdd;" horiz-adv-x="1173" 
d="M14 1298h280l310 -558h-46l322 558h278l-462 -762v-536h-236v536zM522 1440l-113 92l374 373l158 -128z" />
    <glyph glyph-name="Thorn" unicode="&#xde;" horiz-adv-x="1161" 
d="M180 0v1298h238v-263l-54 53h274q219 0 341.5 -108t122.5 -306q0 -196 -122.5 -304t-341.5 -108h-274l54 53v-315h-238zM418 415l-54 53h274q110 0 166 58t56 148q0 92 -56 151t-166 59h-274l54 54v-523z" />
    <glyph glyph-name="germandbls" unicode="&#xdf;" horiz-adv-x="1297" 
d="M1047 1076q0 -73 -26 -122t-59.5 -84.5t-59 -65.5t-25.5 -64q0 -38 32.5 -67t80.5 -59t95.5 -69t80 -95t32.5 -139q0 -104 -54.5 -179.5t-141 -116.5t-184.5 -41q-57 0 -126 15t-126 43l2 188q60 -40 112.5 -58.5t104.5 -18.5q55 0 89 19t49 51t15 72q0 64 -30 108.5
t-73.5 78.5t-87 66t-73 71t-29.5 93t28 92.5t65 73t65 74.5t28 97q0 74 -55.5 115.5t-145.5 41.5q-114 0 -159.5 -69t-45.5 -220v-907h-239v912q0 156 54.5 260.5t156 157t244.5 52.5q125 0 216 -38t140.5 -107t49.5 -161z" />
    <glyph glyph-name="agrave" unicode="&#xe0;" horiz-adv-x="1170" 
d="M804 0l-30 236v390q0 102 -41.5 151t-140.5 49q-57 0 -99 -17t-64.5 -48.5t-22.5 -76.5h-258q0 110 53 179.5t152.5 102t238.5 32.5q126 0 220 -40.5t146 -124.5t52 -215v-618h-206zM486 -28q-125 0 -208.5 43.5t-125.5 114.5t-42 154q0 92 48.5 154.5t137.5 94t210 31.5
q79 0 149.5 -12t140.5 -32v-138q-55 18 -120 28t-122 10q-84 0 -138 -31t-54 -105q0 -54 44 -93t140 -39q73 0 124 32t77.5 80t26.5 96h56q0 -105 -39 -193.5t-115.5 -141.5t-189.5 -53zM735 1117l-418 337l157 128l374 -373z" />
    <glyph glyph-name="aacute" unicode="&#xe1;" horiz-adv-x="1170" 
d="M804 0l-30 236v390q0 102 -41.5 151t-140.5 49q-57 0 -99 -17t-64.5 -48.5t-22.5 -76.5h-258q0 110 53 179.5t152.5 102t238.5 32.5q126 0 220 -40.5t146 -124.5t52 -215v-618h-206zM486 -28q-125 0 -208.5 43.5t-125.5 114.5t-42 154q0 92 48.5 154.5t137.5 94t210 31.5
q79 0 149.5 -12t140.5 -32v-138q-55 18 -120 28t-122 10q-84 0 -138 -31t-54 -105q0 -54 44 -93t140 -39q73 0 124 32t77.5 80t26.5 96h56q0 -105 -39 -193.5t-115.5 -141.5t-189.5 -53zM520 1114l-113 92l374 373l158 -128z" />
    <glyph glyph-name="acircumflex" unicode="&#xe2;" horiz-adv-x="1170" 
d="M804 0l-30 236v390q0 102 -41.5 151t-140.5 49q-57 0 -99 -17t-64.5 -48.5t-22.5 -76.5h-258q0 110 53 179.5t152.5 102t238.5 32.5q126 0 220 -40.5t146 -124.5t52 -215v-618h-206zM486 -28q-125 0 -208.5 43.5t-125.5 114.5t-42 154q0 92 48.5 154.5t137.5 94t210 31.5
q79 0 149.5 -12t140.5 -32v-138q-55 18 -120 28t-122 10q-84 0 -138 -31t-54 -105q0 -54 44 -93t140 -39q73 0 124 32t77.5 80t26.5 96h56q0 -105 -39 -193.5t-115.5 -141.5t-189.5 -53zM367 1101l-139 110l356 305l357 -305l-139 -110l-260 234h83z" />
    <glyph glyph-name="atilde" unicode="&#xe3;" horiz-adv-x="1170" 
d="M804 0l-30 236v390q0 102 -41.5 151t-140.5 49q-57 0 -99 -17t-64.5 -48.5t-22.5 -76.5h-258q0 110 53 179.5t152.5 102t238.5 32.5q126 0 220 -40.5t146 -124.5t52 -215v-618h-206zM486 -28q-125 0 -208.5 43.5t-125.5 114.5t-42 154q0 92 48.5 154.5t137.5 94t210 31.5
q79 0 149.5 -12t140.5 -32v-138q-55 18 -120 28t-122 10q-84 0 -138 -31t-54 -105q0 -54 44 -93t140 -39q73 0 124 32t77.5 80t26.5 96h56q0 -105 -39 -193.5t-115.5 -141.5t-189.5 -53zM332 1123l-94 57q24 121 80.5 188.5t133.5 67.5q29 0 60.5 -11t85.5 -39
q51 -26 76.5 -37t49.5 -11q29 0 57 23.5t49 74.5l100 -66q-14 -72 -45.5 -127.5t-72.5 -87.5t-82 -32q-36 0 -71.5 14t-92.5 42q-47 26 -70 35t-44 9q-32 0 -61.5 -20.5t-58.5 -79.5z" />
    <glyph glyph-name="adieresis" unicode="&#xe4;" horiz-adv-x="1170" 
d="M804 0l-30 236v390q0 102 -41.5 151t-140.5 49q-57 0 -99 -17t-64.5 -48.5t-22.5 -76.5h-258q0 110 53 179.5t152.5 102t238.5 32.5q126 0 220 -40.5t146 -124.5t52 -215v-618h-206zM486 -28q-125 0 -208.5 43.5t-125.5 114.5t-42 154q0 92 48.5 154.5t137.5 94t210 31.5
q79 0 149.5 -12t140.5 -32v-138q-55 18 -120 28t-122 10q-84 0 -138 -31t-54 -105q0 -54 44 -93t140 -39q73 0 124 32t77.5 80t26.5 96h56q0 -105 -39 -193.5t-115.5 -141.5t-189.5 -53zM775 1142q-58 0 -99 38t-41 95t41 95.5t99 38.5q62 0 102 -38.5t40 -95.5t-40 -95
t-102 -38zM391 1142q-61 0 -100.5 38t-39.5 93q0 59 39.5 96.5t100.5 37.5q62 0 102 -37.5t40 -96.5q0 -55 -40 -93t-102 -38z" />
    <glyph glyph-name="aring" unicode="&#xe5;" horiz-adv-x="1170" 
d="M804 0l-30 236v390q0 102 -41.5 151t-140.5 49q-57 0 -99 -17t-64.5 -48.5t-22.5 -76.5h-258q0 110 53 179.5t152.5 102t238.5 32.5q126 0 220 -40.5t146 -124.5t52 -215v-618h-206zM486 -28q-125 0 -208.5 43.5t-125.5 114.5t-42 154q0 92 48.5 154.5t137.5 94t210 31.5
q79 0 149.5 -12t140.5 -32v-138q-55 18 -120 28t-122 10q-84 0 -138 -31t-54 -105q0 -54 44 -93t140 -39q73 0 124 32t77.5 80t26.5 96h56q0 -105 -39 -193.5t-115.5 -141.5t-189.5 -53zM586 1076q-65 0 -119.5 32t-86.5 86.5t-32 119.5t32 119t86 86.5t120 32.5
q65 0 119 -32.5t86.5 -86.5t32.5 -119t-32.5 -119t-86.5 -86.5t-119 -32.5zM586 1234q34 0 57 23t23 57t-23 57.5t-57 23.5t-57 -23.5t-23 -57.5t23 -57t57 -23z" />
    <glyph glyph-name="ae" unicode="&#xe6;" horiz-adv-x="1724" 
d="M791 302h-30v324q0 99 -43.5 149.5t-136.5 50.5q-53 0 -92.5 -17t-61 -48.5t-21.5 -76.5h-258q0 110 52.5 179.5t140.5 102t195 32.5q135 0 224 -49.5t133 -142t44 -222.5v-139zM480 -28q-119 0 -201.5 42t-125.5 113t-43 157q0 92 47.5 154.5t134 94t200.5 31.5
q74 0 147.5 -12.5t142.5 -31.5v-138q-54 18 -122.5 28t-115.5 10q-78 0 -130 -31.5t-52 -100.5q0 -57 41 -96.5t123 -39.5q75 0 127 31t80 78.5t28 98.5h152q0 -94 -49 -183t-145 -147t-239 -58zM1224 -28q-133 0 -237 67.5t-163.5 185t-59.5 264.5q0 148 59.5 263
t162 180.5t233.5 65.5q111 0 194.5 -47t134.5 -126.5t70 -179t2 -205.5h-674v128h507l-46 -30q3 47 -4.5 95t-29 88t-60 64.5t-98.5 24.5q-71 0 -121 -36t-76 -98t-26 -140v-94q0 -82 24 -145t73 -99t124 -36q66 0 113.5 31t60.5 97h239q-14 -94 -71 -165.5t-143 -112
t-188 -40.5z" />
    <glyph glyph-name="ccedilla" unicode="&#xe7;" horiz-adv-x="1059" 
d="M554 -28q-122 0 -226.5 63.5t-169 179t-64.5 271.5q0 165 64.5 279.5t169 173.5t226.5 59q95 0 167.5 -30.5t123.5 -82t80 -114.5t37 -127l-238 -6q-16 64 -59.5 106t-112.5 42q-57 0 -107 -31.5t-81.5 -97.5t-31.5 -171q0 -100 29.5 -166.5t79.5 -100t111 -33.5
q90 0 131 43.5t41 116.5h238q0 -103 -47 -188t-138 -135.5t-223 -50.5zM350 -365l33 83q68 -32 120.5 -36.5t84 13t34.5 49.5q3 28 -19.5 49.5t-63 38.5t-96.5 29l78 220l104 -15l-71 -199l-31 60q97 -15 157 -45t86.5 -69t23.5 -83q-4 -58 -49.5 -93.5t-113.5 -47.5
t-141.5 -1t-135.5 47z" />
    <glyph glyph-name="egrave" unicode="&#xe8;" horiz-adv-x="1060" 
d="M548 -28q-124 0 -227 64t-165 179.5t-62 270.5q0 160 61.5 275t164.5 176t228 61q116 0 200.5 -46.5t136 -126t69.5 -179.5t2 -206h-674v128h507l-46 -30q3 47 -4.5 95t-28.5 88t-59.5 64.5t-98.5 24.5q-72 0 -122 -36t-76 -98t-26 -140v-94q0 -82 24.5 -145t73 -99
t122.5 -36q69 0 116 32t60 96h238q-15 -94 -70.5 -165.5t-143.5 -112t-200 -40.5zM681 1117l-418 337l157 128l374 -373z" />
    <glyph glyph-name="eacute" unicode="&#xe9;" horiz-adv-x="1060" 
d="M548 -28q-124 0 -227 64t-165 179.5t-62 270.5q0 160 61.5 275t164.5 176t228 61q116 0 200.5 -46.5t136 -126t69.5 -179.5t2 -206h-674v128h507l-46 -30q3 47 -4.5 95t-28.5 88t-59.5 64.5t-98.5 24.5q-72 0 -122 -36t-76 -98t-26 -140v-94q0 -82 24.5 -145t73 -99
t122.5 -36q69 0 116 32t60 96h238q-15 -94 -70.5 -165.5t-143.5 -112t-200 -40.5zM466 1114l-113 92l374 373l158 -128z" />
    <glyph glyph-name="ecircumflex" unicode="&#xea;" horiz-adv-x="1060" 
d="M548 -28q-124 0 -227 64t-165 179.5t-62 270.5q0 160 61.5 275t164.5 176t228 61q116 0 200.5 -46.5t136 -126t69.5 -179.5t2 -206h-674v128h507l-46 -30q3 47 -4.5 95t-28.5 88t-59.5 64.5t-98.5 24.5q-72 0 -122 -36t-76 -98t-26 -140v-94q0 -82 24.5 -145t73 -99
t122.5 -36q69 0 116 32t60 96h238q-15 -94 -70.5 -165.5t-143.5 -112t-200 -40.5zM313 1101l-139 110l356 305l357 -305l-139 -110l-260 234h83z" />
    <glyph glyph-name="edieresis" unicode="&#xeb;" horiz-adv-x="1060" 
d="M548 -28q-124 0 -227 64t-165 179.5t-62 270.5q0 160 61.5 275t164.5 176t228 61q116 0 200.5 -46.5t136 -126t69.5 -179.5t2 -206h-674v128h507l-46 -30q3 47 -4.5 95t-28.5 88t-59.5 64.5t-98.5 24.5q-72 0 -122 -36t-76 -98t-26 -140v-94q0 -82 24.5 -145t73 -99
t122.5 -36q69 0 116 32t60 96h238q-15 -94 -70.5 -165.5t-143.5 -112t-200 -40.5zM721 1142q-58 0 -99 38t-41 95t41 95.5t99 38.5q62 0 102 -38.5t40 -95.5t-40 -95t-102 -38zM337 1142q-61 0 -100.5 38t-39.5 93q0 59 39.5 96.5t100.5 37.5q62 0 102 -37.5t40 -96.5
q0 -55 -40 -93t-102 -38z" />
    <glyph glyph-name="igrave" unicode="&#xec;" horiz-adv-x="656" 
d="M206 0v974h236v-974h-236zM474 1117l-418 337l157 128l374 -373z" />
    <glyph glyph-name="iacute" unicode="&#xed;" horiz-adv-x="656" 
d="M206 0v974h236v-974h-236zM259 1114l-113 92l374 373l158 -128z" />
    <glyph glyph-name="icircumflex" unicode="&#xee;" horiz-adv-x="656" 
d="M206 0v974h236v-974h-236zM106 1101l-139 110l356 305l357 -305l-139 -110l-260 234h83z" />
    <glyph glyph-name="idieresis" unicode="&#xef;" horiz-adv-x="656" 
d="M206 0v974h236v-974h-236zM514 1142q-58 0 -99 38t-41 95t41 95.5t99 38.5q62 0 102 -38.5t40 -95.5t-40 -95t-102 -38zM130 1142q-61 0 -100.5 38t-39.5 93q0 59 39.5 96.5t100.5 37.5q62 0 102 -37.5t40 -96.5q0 -55 -40 -93t-102 -38z" />
    <glyph glyph-name="eth" unicode="&#xf0;" horiz-adv-x="1134" 
d="M550 -28q-121 0 -223 64.5t-163.5 181.5t-61.5 274q0 153 57.5 266.5t153.5 176.5t209 63q116 0 201 -64.5t131.5 -173.5t46.5 -244h-74q-1 92 -38.5 152t-93 89t-115.5 29q-70 0 -124 -37t-85 -104t-31 -157t31 -158t85.5 -106t125.5 -38q76 0 128.5 42t81.5 112t33 155
q5 152 -12 290t-67 264.5t-141.5 244.5t-235.5 230l198 133q131 -119 224 -247t151 -259.5t85 -260.5t27 -249q0 -162 -41.5 -286.5t-112.5 -209.5t-161.5 -129t-188.5 -44zM419 1112l-67 143l621 311l68 -143z" />
    <glyph glyph-name="ntilde" unicode="&#xf1;" horiz-adv-x="1246" 
d="M852 0v568q0 108 -52 163t-136 55q-71 0 -125.5 -39t-85.5 -117.5t-31 -195.5h-78q0 189 47 314.5t133 187.5t202 62q120 0 200.5 -53.5t121 -150.5t40.5 -226v-568h-236zM186 0v970h206l30 -192v-778h-236zM385 1130l-94 57q24 121 80.5 188.5t133.5 67.5q29 0 60.5 -11
t85.5 -39q51 -26 76.5 -37t49.5 -11q29 0 57 23.5t49 74.5l100 -66q-14 -72 -45.5 -127.5t-72.5 -87.5t-82 -32q-36 0 -71.5 14t-92.5 42q-47 26 -70 35t-44 9q-32 0 -61.5 -20.5t-58.5 -79.5z" />
    <glyph glyph-name="ograve" unicode="&#xf2;" horiz-adv-x="1132" 
d="M568 -28q-133 0 -240.5 57t-170.5 170.5t-63 284.5q0 174 63 288t170.5 170t240.5 56q131 0 237.5 -56t169.5 -170t63 -288q0 -171 -63 -284.5t-169.5 -170.5t-237.5 -57zM560 178q70 0 124.5 34.5t86 102.5t31.5 169q0 154 -60.5 232t-165.5 78q-71 0 -126 -34.5
t-86.5 -103.5t-31.5 -172q0 -152 61.5 -229t166.5 -77zM717 1117l-418 337l157 128l374 -373z" />
    <glyph glyph-name="oacute" unicode="&#xf3;" horiz-adv-x="1132" 
d="M568 -28q-133 0 -240.5 57t-170.5 170.5t-63 284.5q0 174 63 288t170.5 170t240.5 56q131 0 237.5 -56t169.5 -170t63 -288q0 -171 -63 -284.5t-169.5 -170.5t-237.5 -57zM560 178q70 0 124.5 34.5t86 102.5t31.5 169q0 154 -60.5 232t-165.5 78q-71 0 -126 -34.5
t-86.5 -103.5t-31.5 -172q0 -152 61.5 -229t166.5 -77zM502 1114l-113 92l374 373l158 -128z" />
    <glyph glyph-name="ocircumflex" unicode="&#xf4;" horiz-adv-x="1132" 
d="M568 -28q-133 0 -240.5 57t-170.5 170.5t-63 284.5q0 174 63 288t170.5 170t240.5 56q131 0 237.5 -56t169.5 -170t63 -288q0 -171 -63 -284.5t-169.5 -170.5t-237.5 -57zM560 178q70 0 124.5 34.5t86 102.5t31.5 169q0 154 -60.5 232t-165.5 78q-71 0 -126 -34.5
t-86.5 -103.5t-31.5 -172q0 -152 61.5 -229t166.5 -77zM349 1101l-139 110l356 305l357 -305l-139 -110l-260 234h83z" />
    <glyph glyph-name="otilde" unicode="&#xf5;" horiz-adv-x="1132" 
d="M568 -28q-133 0 -240.5 57t-170.5 170.5t-63 284.5q0 174 63 288t170.5 170t240.5 56q131 0 237.5 -56t169.5 -170t63 -288q0 -171 -63 -284.5t-169.5 -170.5t-237.5 -57zM560 178q70 0 124.5 34.5t86 102.5t31.5 169q0 154 -60.5 232t-165.5 78q-71 0 -126 -34.5
t-86.5 -103.5t-31.5 -172q0 -152 61.5 -229t166.5 -77zM314 1123l-94 57q24 121 80.5 188.5t133.5 67.5q29 0 60.5 -11t85.5 -39q51 -26 76.5 -37t49.5 -11q29 0 57 23.5t49 74.5l100 -66q-14 -72 -45.5 -127.5t-72.5 -87.5t-82 -32q-36 0 -71.5 14t-92.5 42q-47 26 -70 35
t-44 9q-32 0 -61.5 -20.5t-58.5 -79.5z" />
    <glyph glyph-name="odieresis" unicode="&#xf6;" horiz-adv-x="1132" 
d="M568 -28q-133 0 -240.5 57t-170.5 170.5t-63 284.5q0 174 63 288t170.5 170t240.5 56q131 0 237.5 -56t169.5 -170t63 -288q0 -171 -63 -284.5t-169.5 -170.5t-237.5 -57zM560 178q70 0 124.5 34.5t86 102.5t31.5 169q0 154 -60.5 232t-165.5 78q-71 0 -126 -34.5
t-86.5 -103.5t-31.5 -172q0 -152 61.5 -229t166.5 -77zM757 1142q-58 0 -99 38t-41 95t41 95.5t99 38.5q62 0 102 -38.5t40 -95.5t-40 -95t-102 -38zM373 1142q-61 0 -100.5 38t-39.5 93q0 59 39.5 96.5t100.5 37.5q62 0 102 -37.5t40 -96.5q0 -55 -40 -93t-102 -38z" />
    <glyph glyph-name="divide" unicode="&#xf7;" horiz-adv-x="1041" 
d="M132 444v208h776v-208h-776zM518 78q-58 0 -97 37.5t-39 92.5q0 56 39 93t97 37q60 0 100 -37t40 -93q0 -55 -40 -92.5t-100 -37.5zM518 752q-58 0 -97 36.5t-39 93.5q0 54 39 92t97 38q60 0 100 -38t40 -92q0 -57 -40 -93.5t-100 -36.5z" />
    <glyph glyph-name="oslash" unicode="&#xf8;" horiz-adv-x="1132" 
d="M568 -28q-133 0 -240.5 57t-170.5 170.5t-63 284.5q0 174 63 288t170.5 170t240.5 56q131 0 237.5 -56t169.5 -170t63 -288q0 -171 -63 -284.5t-169.5 -170.5t-237.5 -57zM560 178q70 0 124.5 34.5t86 102.5t31.5 169q0 154 -60.5 232t-165.5 78q-71 0 -126 -34.5
t-86.5 -103.5t-31.5 -172q0 -152 61.5 -229t166.5 -77zM99.2939 -1.33203l820.43 983.111h220.272l-824.07 -983.111h-216.632z" />
    <glyph glyph-name="ugrave" unicode="&#xf9;" horiz-adv-x="1254" 
d="M832 974h236v-974h-236v974zM166 974h236v-596q0 -95 47 -142.5t129 -47.5q70 0 127.5 36.5t92 108t34.5 177.5h64q0 -178 -46 -295t-127 -175t-187 -58q-104 0 -188 37t-133 119t-49 216v620zM794 1117l-418 337l157 128l374 -373z" />
    <glyph glyph-name="uacute" unicode="&#xfa;" horiz-adv-x="1254" 
d="M832 974h236v-974h-236v974zM166 974h236v-596q0 -95 47 -142.5t129 -47.5q70 0 127.5 36.5t92 108t34.5 177.5h64q0 -178 -46 -295t-127 -175t-187 -58q-104 0 -188 37t-133 119t-49 216v620zM578 1114l-113 92l374 373l158 -128z" />
    <glyph glyph-name="ucircumflex" unicode="&#xfb;" horiz-adv-x="1254" 
d="M832 974h236v-974h-236v974zM166 974h236v-596q0 -95 47 -142.5t129 -47.5q70 0 127.5 36.5t92 108t34.5 177.5h64q0 -178 -46 -295t-127 -175t-187 -58q-104 0 -188 37t-133 119t-49 216v620zM425 1101l-139 110l356 305l357 -305l-139 -110l-260 234h83z" />
    <glyph glyph-name="udieresis" unicode="&#xfc;" horiz-adv-x="1254" 
d="M832 974h236v-974h-236v974zM166 974h236v-596q0 -95 47 -142.5t129 -47.5q70 0 127.5 36.5t92 108t34.5 177.5h64q0 -178 -46 -295t-127 -175t-187 -58q-104 0 -188 37t-133 119t-49 216v620zM834 1142q-58 0 -99 38t-41 95t41 95.5t99 38.5q62 0 102 -38.5t40 -95.5
t-40 -95t-102 -38zM450 1142q-61 0 -100.5 38t-39.5 93q0 59 39.5 96.5t100.5 37.5q62 0 102 -37.5t40 -96.5q0 -55 -40 -93t-102 -38z" />
    <glyph glyph-name="yacute" unicode="&#xfd;" horiz-adv-x="1007" 
d="M38 970h268l258 -764h-42l222 764h240l-372 -1146q-57 -172 -140.5 -249t-203.5 -77q-69 0 -134.5 15.5t-133.5 48.5v208q55 -34 106.5 -50t103.5 -16q47 0 82.5 25.5t61.5 71t44 105.5l30 94zM439 1114l-113 92l374 373l158 -128z" />
    <glyph glyph-name="thorn" unicode="&#xfe;" 
d="M672 -28q-107 0 -182 46t-114.5 139.5t-39.5 234.5h86q0 -65 30 -111t79.5 -70.5t106.5 -24.5q59 0 116.5 32.5t95.5 99t38 168.5q0 93 -32 160.5t-87.5 103.5t-126.5 36q-60 0 -110 -27t-80 -78.5t-30 -124.5h-86q0 153 47 250.5t126 144.5t173 47q115 0 216.5 -61
t164.5 -175.5t63 -275.5q0 -162 -64 -277t-167.5 -176t-222.5 -61zM186 -474v1772h236v-1772h-236z" />
    <glyph glyph-name="ydieresis" unicode="&#xff;" horiz-adv-x="1007" 
d="M38 970h268l258 -764h-42l222 764h240l-372 -1146q-57 -172 -140.5 -249t-203.5 -77q-69 0 -134.5 15.5t-133.5 48.5v208q55 -34 106.5 -50t103.5 -16q47 0 82.5 25.5t61.5 71t44 105.5l30 94zM695 1142q-58 0 -99 38t-41 95t41 95.5t99 38.5q62 0 102 -38.5t40 -95.5
t-40 -95t-102 -38zM311 1142q-61 0 -100.5 38t-39.5 93q0 59 39.5 96.5t100.5 37.5q62 0 102 -37.5t40 -96.5q0 -55 -40 -93t-102 -38z" />
    <glyph glyph-name="Amacron" unicode="&#x100;" horiz-adv-x="1251" 
d="M44 0l442 1298h296l424 -1298h-248l-90 280h-482l-92 -280h-250zM446 458h366l-182 558zM293 1687h691v-193h-691v193z" />
    <glyph glyph-name="amacron" unicode="&#x101;" horiz-adv-x="1170" 
d="M804 0l-30 236v390q0 102 -41.5 151t-140.5 49q-57 0 -99 -17t-64.5 -48.5t-22.5 -76.5h-258q0 110 53 179.5t152.5 102t238.5 32.5q126 0 220 -40.5t146 -124.5t52 -215v-618h-206zM486 -28q-125 0 -208.5 43.5t-125.5 114.5t-42 154q0 92 48.5 154.5t137.5 94t210 31.5
q79 0 149.5 -12t140.5 -32v-138q-55 18 -120 28t-122 10q-84 0 -138 -31t-54 -105q0 -54 44 -93t140 -39q73 0 124 32t77.5 80t26.5 96h56q0 -105 -39 -193.5t-115.5 -141.5t-189.5 -53zM239 1361h691v-193h-691v193z" />
    <glyph glyph-name="Abreve" unicode="&#x102;" horiz-adv-x="1251" 
d="M44 0l442 1298h296l424 -1298h-248l-90 280h-482l-92 -280h-250zM446 458h366l-182 558zM638 1487q-147 0 -231.5 83t-84.5 229h186q0 -77 34.5 -117t95.5 -40q62 0 96.5 40t34.5 117h185q0 -146 -84 -229t-232 -83z" />
    <glyph glyph-name="abreve" unicode="&#x103;" horiz-adv-x="1170" 
d="M804 0l-30 236v390q0 102 -41.5 151t-140.5 49q-57 0 -99 -17t-64.5 -48.5t-22.5 -76.5h-258q0 110 53 179.5t152.5 102t238.5 32.5q126 0 220 -40.5t146 -124.5t52 -215v-618h-206zM486 -28q-125 0 -208.5 43.5t-125.5 114.5t-42 154q0 92 48.5 154.5t137.5 94t210 31.5
q79 0 149.5 -12t140.5 -32v-138q-55 18 -120 28t-122 10q-84 0 -138 -31t-54 -105q0 -54 44 -93t140 -39q73 0 124 32t77.5 80t26.5 96h56q0 -105 -39 -193.5t-115.5 -141.5t-189.5 -53zM584 1161q-147 0 -231.5 83t-84.5 229h186q0 -77 34.5 -117t95.5 -40q62 0 96.5 40
t34.5 117h185q0 -146 -84 -229t-232 -83z" />
    <glyph glyph-name="Aogonek" unicode="&#x104;" horiz-adv-x="1251" 
d="M44 0l442 1298h296l424 -1298h-248l-90 280h-482l-92 -280h-250zM446 458h366l-182 558zM1322 -325q-65 -35 -132.5 -53t-132.5 -18q-107 0 -177 48t-70 137q0 72 51.5 140.5t151.5 109.5l180 -39q-103 -36 -163.5 -77.5t-60.5 -92.5q0 -39 33 -54.5t73 -15.5
q43 0 87.5 14t104.5 46z" />
    <glyph glyph-name="aogonek" unicode="&#x105;" horiz-adv-x="1170" 
d="M804 0l-30 236v390q0 102 -41.5 151t-140.5 49q-57 0 -99 -17t-64.5 -48.5t-22.5 -76.5h-258q0 110 53 179.5t152.5 102t238.5 32.5q126 0 220 -40.5t146 -124.5t52 -215v-618h-206zM486 -28q-125 0 -208.5 43.5t-125.5 114.5t-42 154q0 92 48.5 154.5t137.5 94t210 31.5
q79 0 149.5 -12t140.5 -32v-138q-55 18 -120 28t-122 10q-84 0 -138 -31t-54 -105q0 -54 44 -93t140 -39q73 0 124 32t77.5 80t26.5 96h56q0 -105 -39 -193.5t-115.5 -141.5t-189.5 -53zM1139 -325q-65 -35 -132.5 -53t-132.5 -18q-107 0 -177 48t-70 137q0 72 51.5 140.5
t151.5 109.5l180 -39q-103 -36 -163.5 -77.5t-60.5 -92.5q0 -39 33 -54.5t73 -15.5q43 0 87.5 14t104.5 46z" />
    <glyph glyph-name="Cacute" unicode="&#x106;" horiz-adv-x="1267" 
d="M658 -28q-171 0 -297.5 81.5t-196.5 233.5t-70 365q0 220 72.5 369.5t200 226t291.5 76.5q227 0 354.5 -110t163.5 -286l-252 -46q-31 102 -99 165t-167 63q-87 0 -157 -50.5t-111.5 -152.5t-41.5 -255q0 -144 36.5 -248t105.5 -160t168 -56q127 0 196.5 67.5t69.5 172.5
h252q0 -145 -62.5 -246.5t-178.5 -155.5t-277 -54zM581 1440l-113 92l374 373l158 -128z" />
    <glyph glyph-name="cacute" unicode="&#x107;" horiz-adv-x="1059" 
d="M554 -28q-122 0 -226.5 63.5t-169 179t-64.5 271.5q0 165 64.5 279.5t169 173.5t226.5 59q95 0 167.5 -30.5t123.5 -82t80 -114.5t37 -127l-238 -6q-16 64 -59.5 106t-112.5 42q-57 0 -107 -31.5t-81.5 -97.5t-31.5 -171q0 -100 29.5 -166.5t79.5 -100t111 -33.5
q90 0 131 43.5t41 116.5h238q0 -103 -47 -188t-138 -135.5t-223 -50.5zM489 1114l-113 92l374 373l158 -128z" />
    <glyph glyph-name="Cdotaccent" unicode="&#x10a;" horiz-adv-x="1267" 
d="M658 -28q-171 0 -297.5 81.5t-196.5 233.5t-70 365q0 220 72.5 369.5t200 226t291.5 76.5q227 0 354.5 -110t163.5 -286l-252 -46q-31 102 -99 165t-167 63q-87 0 -157 -50.5t-111.5 -152.5t-41.5 -255q0 -144 36.5 -248t105.5 -160t168 -56q127 0 196.5 67.5t69.5 172.5
h252q0 -145 -62.5 -246.5t-178.5 -155.5t-277 -54zM495.095 1631.4q0 66.7178 45.1328 111.85q45.1318 45.1328 115.774 45.1328q70.6416 0 117.736 -45.1328q47.0947 -45.1318 47.0947 -111.85q0 -65.7363 -47.0947 -109.397q-47.0947 -43.6602 -117.736 -43.6602
q-70.6426 0 -115.774 44.1514q-45.1328 44.1514 -45.1328 108.906z" />
    <glyph glyph-name="cdotaccent" unicode="&#x10b;" horiz-adv-x="1059" 
d="M554 -28q-122 0 -226.5 63.5t-169 179t-64.5 271.5q0 165 64.5 279.5t169 173.5t226.5 59q95 0 167.5 -30.5t123.5 -82t80 -114.5t37 -127l-238 -6q-16 64 -59.5 106t-112.5 42q-57 0 -107 -31.5t-81.5 -97.5t-31.5 -171q0 -100 29.5 -166.5t79.5 -100t111 -33.5
q90 0 131 43.5t41 116.5h238q0 -103 -47 -188t-138 -135.5t-223 -50.5zM403.095 1305.4q0 66.7178 45.1328 111.85q45.1318 45.1328 115.774 45.1328q70.6416 0 117.736 -45.1328q47.0947 -45.1318 47.0947 -111.85q0 -65.7363 -47.0947 -109.397
q-47.0947 -43.6602 -117.736 -43.6602q-70.6426 0 -115.774 44.1514q-45.1328 44.1514 -45.1328 108.906z" />
    <glyph glyph-name="Ccaron" unicode="&#x10c;" horiz-adv-x="1267" 
d="M658 -28q-171 0 -297.5 81.5t-196.5 233.5t-70 365q0 220 72.5 369.5t200 226t291.5 76.5q227 0 354.5 -110t163.5 -286l-252 -46q-31 102 -99 165t-167 63q-87 0 -157 -50.5t-111.5 -152.5t-41.5 -255q0 -144 36.5 -248t105.5 -160t168 -56q127 0 196.5 67.5t69.5 172.5
h252q0 -145 -62.5 -246.5t-178.5 -155.5t-277 -54zM653 1442l-356 305l139 110l258 -260h-83l260 260l139 -110z" />
    <glyph glyph-name="ccaron" unicode="&#x10d;" horiz-adv-x="1059" 
d="M554 -28q-122 0 -226.5 63.5t-169 179t-64.5 271.5q0 165 64.5 279.5t169 173.5t226.5 59q95 0 167.5 -30.5t123.5 -82t80 -114.5t37 -127l-238 -6q-16 64 -59.5 106t-112.5 42q-57 0 -107 -31.5t-81.5 -97.5t-31.5 -171q0 -100 29.5 -166.5t79.5 -100t111 -33.5
q90 0 131 43.5t41 116.5h238q0 -103 -47 -188t-138 -135.5t-223 -50.5zM561 1116l-356 305l139 110l258 -260h-83l260 260l139 -110z" />
    <glyph glyph-name="Dcaron" unicode="&#x10e;" horiz-adv-x="1373" 
d="M186 1298h420q198 0 347 -79.5t232 -225.5t83 -345q0 -197 -83 -342.5t-232 -225.5t-347 -80h-420v1298zM422 1084v-872h184q126 0 217.5 57t141 155.5t49.5 223.5q0 127 -49.5 225t-141 154.5t-217.5 56.5h-184zM694 1442l-356 305l139 110l258 -260h-83l260 260
l139 -110z" />
    <glyph glyph-name="dcaron" unicode="&#x10f;" horiz-adv-x="1426" 
d="M1215 1028l-113 56q49 24 83.5 54t45.5 71q-39 6 -65.5 29.5t-26.5 61.5q0 39 29.5 66.5t76.5 27.5q57 0 91.5 -41t34.5 -98q0 -65 -41 -127.5t-115 -99.5zM544 -28q-122 0 -222.5 64.5t-160 181t-59.5 272.5q0 154 57.5 268.5t154 177t214.5 62.5q108 0 187 -51.5
t121 -152.5t42 -248h-74q0 76 -31 129.5t-81.5 82t-109.5 28.5q-71 0 -125.5 -37t-85.5 -103.5t-31 -155.5q0 -92 31 -160t85.5 -106t123.5 -38q56 0 107.5 30.5t84 85.5t32.5 128h74q0 -153 -45.5 -254.5t-121.5 -152.5t-167 -51zM848 0l-44 240v1132h238v-1372h-194z" />
    <glyph glyph-name="Dcroat" unicode="&#x110;" horiz-adv-x="1373" 
d="M44 751h633v-204h-633v204zM186 1298h420q198 0 347 -79.5t232 -225.5t83 -345q0 -197 -83 -342.5t-232 -225.5t-347 -80h-420v1298zM422 1084v-872h184q126 0 217.5 57t141 155.5t49.5 223.5q0 127 -49.5 225t-141 154.5t-217.5 56.5h-184z" />
    <glyph glyph-name="dcroat" unicode="&#x111;" horiz-adv-x="1228" 
d="M544 -28q-122 0 -222.5 64.5t-160 181t-59.5 272.5q0 154 57.5 268.5t154 177t214.5 62.5q108 0 187 -51.5t121 -152.5t42 -248h-74q0 76 -31 129.5t-81.5 82t-109.5 28.5q-71 0 -125.5 -37t-85.5 -103.5t-31 -155.5q0 -92 31 -160t85.5 -106t123.5 -38q56 0 107.5 30.5
t84 85.5t32.5 128h74q0 -153 -45.5 -254.5t-121.5 -152.5t-167 -51zM848 0l-44 240v1132h238v-1372h-194zM602 1089v155h584v-155h-584z" />
    <glyph glyph-name="Emacron" unicode="&#x112;" horiz-adv-x="1173" 
d="M184 0v1298h834v-204h-598v-342h562v-204h-562v-342h598v-206h-834zM241 1687h691v-193h-691v193z" />
    <glyph glyph-name="emacron" unicode="&#x113;" horiz-adv-x="1060" 
d="M548 -28q-124 0 -227 64t-165 179.5t-62 270.5q0 160 61.5 275t164.5 176t228 61q116 0 200.5 -46.5t136 -126t69.5 -179.5t2 -206h-674v128h507l-46 -30q3 47 -4.5 95t-28.5 88t-59.5 64.5t-98.5 24.5q-72 0 -122 -36t-76 -98t-26 -140v-94q0 -82 24.5 -145t73 -99
t122.5 -36q69 0 116 32t60 96h238q-15 -94 -70.5 -165.5t-143.5 -112t-200 -40.5zM185 1361h691v-193h-691v193z" />
    <glyph glyph-name="Edotaccent" unicode="&#x116;" horiz-adv-x="1173" 
d="M184 0v1298h834v-204h-598v-342h562v-204h-562v-342h598v-206h-834zM435.095 1631.4q0 66.7178 45.1328 111.85q45.1318 45.1328 115.774 45.1328q70.6416 0 117.736 -45.1328q47.0947 -45.1318 47.0947 -111.85q0 -65.7363 -47.0947 -109.397
q-47.0947 -43.6602 -117.736 -43.6602q-70.6426 0 -115.774 44.1514q-45.1328 44.1514 -45.1328 108.906z" />
    <glyph glyph-name="edotaccent" unicode="&#x117;" horiz-adv-x="1060" 
d="M548 -28q-124 0 -227 64t-165 179.5t-62 270.5q0 160 61.5 275t164.5 176t228 61q116 0 200.5 -46.5t136 -126t69.5 -179.5t2 -206h-674v128h507l-46 -30q3 47 -4.5 95t-28.5 88t-59.5 64.5t-98.5 24.5q-72 0 -122 -36t-76 -98t-26 -140v-94q0 -82 24.5 -145t73 -99
t122.5 -36q69 0 116 32t60 96h238q-15 -94 -70.5 -165.5t-143.5 -112t-200 -40.5zM380.095 1305.4q0 66.7178 45.1328 111.85q45.1318 45.1328 115.774 45.1328q70.6416 0 117.736 -45.1328q47.0947 -45.1318 47.0947 -111.85q0 -65.7363 -47.0947 -109.397
q-47.0947 -43.6602 -117.736 -43.6602q-70.6426 0 -115.774 44.1514q-45.1328 44.1514 -45.1328 108.906z" />
    <glyph glyph-name="Eogonek" unicode="&#x118;" horiz-adv-x="1173" 
d="M184 0v1298h834v-204h-598v-342h562v-204h-562v-342h598v-206h-834zM904 -325q-65 -35 -132.5 -53t-132.5 -18q-107 0 -177 48t-70 137q0 72 51.5 140.5t151.5 109.5l180 -39q-103 -36 -163.5 -77.5t-60.5 -92.5q0 -39 33 -54.5t73 -15.5q43 0 87.5 14t104.5 46z" />
    <glyph glyph-name="eogonek" unicode="&#x119;" horiz-adv-x="1060" 
d="M548 -28q-124 0 -227 64t-165 179.5t-62 270.5q0 160 61.5 275t164.5 176t228 61q116 0 200.5 -46.5t136 -126t69.5 -179.5t2 -206h-674v128h507l-46 -30q3 47 -4.5 95t-28.5 88t-59.5 64.5t-98.5 24.5q-72 0 -122 -36t-76 -98t-26 -140v-94q0 -82 24.5 -145t73 -99
t122.5 -36q69 0 116 32t60 96h238q-15 -94 -70.5 -165.5t-143.5 -112t-200 -40.5zM791 -325q-65 -35 -132.5 -53t-132.5 -18q-107 0 -177 48t-70 137q0 72 51.5 140.5t151.5 109.5l180 -39q-103 -36 -163.5 -77.5t-60.5 -92.5q0 -39 33 -54.5t73 -15.5q43 0 87.5 14
t104.5 46z" />
    <glyph glyph-name="Ecaron" unicode="&#x11a;" horiz-adv-x="1173" 
d="M184 0v1298h834v-204h-598v-342h562v-204h-562v-342h598v-206h-834zM594 1442l-356 305l139 110l258 -260h-83l260 260l139 -110z" />
    <glyph glyph-name="ecaron" unicode="&#x11b;" horiz-adv-x="1060" 
d="M548 -28q-124 0 -227 64t-165 179.5t-62 270.5q0 160 61.5 275t164.5 176t228 61q116 0 200.5 -46.5t136 -126t69.5 -179.5t2 -206h-674v128h507l-46 -30q3 47 -4.5 95t-28.5 88t-59.5 64.5t-98.5 24.5q-72 0 -122 -36t-76 -98t-26 -140v-94q0 -82 24.5 -145t73 -99
t122.5 -36q69 0 116 32t60 96h238q-15 -94 -70.5 -165.5t-143.5 -112t-200 -40.5zM538 1116l-356 305l139 110l258 -260h-83l260 260l139 -110z" />
    <glyph glyph-name="Gbreve" unicode="&#x11e;" horiz-adv-x="1354" 
d="M660 -28q-159 0 -287 84t-203.5 234.5t-75.5 351.5q0 159 46.5 285t129.5 215t195 135.5t243 46.5q182 0 305.5 -79t192.5 -249l-242 -56q-51 83 -117.5 126.5t-150.5 43.5q-96 0 -175 -56.5t-126 -161.5t-47 -250q0 -136 41.5 -238t116.5 -159t174 -57q84 0 150.5 37.5
t105 107.5t38.5 169h52q0 -162 -38.5 -281t-119.5 -184t-208 -65zM1008 0l-34 286v224l-292 6v150h518v-666h-192zM677 1487q-147 0 -231.5 83t-84.5 229h186q0 -77 34.5 -117t95.5 -40q62 0 96.5 40t34.5 117h185q0 -146 -84 -229t-232 -83z" />
    <glyph glyph-name="gbreve" unicode="&#x11f;" horiz-adv-x="1164" 
d="M560 -502q-167 0 -285.5 46t-181.5 120.5t-63 161.5q0 103 75 159.5t189 56.5l172 -64q-98 0 -151 -37t-53 -103q0 -69 79.5 -110.5t218.5 -41.5q101 0 175 30t114.5 78t40.5 102q0 36 -24 59t-74 23h-326q-98 0 -178.5 31.5t-128 85t-47.5 119.5q0 61 34 105.5
t92.5 68.5t131.5 24l60 -78q-29 0 -55.5 -11.5t-43.5 -33.5t-17 -55q0 -40 34 -65t118 -25h326q155 0 243.5 -57t88.5 -175q0 -105 -69 -199.5t-195.5 -154.5t-299.5 -60zM572 300q-115 0 -210.5 43.5t-152.5 121.5t-57 183q0 107 57 186t152.5 121.5t210.5 42.5
q112 0 207 -42.5t153 -121.5t58 -186q0 -105 -58 -183t-153 -121.5t-207 -43.5zM574 464q92 0 138 53t46 131q0 84 -46.5 135t-139.5 51q-90 0 -138 -51t-48 -135q0 -78 48.5 -131t139.5 -53zM916 842l-108 62q0 87 40.5 152.5t108 101.5t149.5 36l-12 -226
q-87 0 -132.5 -30.5t-45.5 -95.5zM582 1161q-147 0 -231.5 83t-84.5 229h186q0 -77 34.5 -117t95.5 -40q62 0 96.5 40t34.5 117h185q0 -146 -84 -229t-232 -83z" />
    <glyph glyph-name="Gdotaccent" unicode="&#x120;" horiz-adv-x="1354" 
d="M660 -28q-159 0 -287 84t-203.5 234.5t-75.5 351.5q0 159 46.5 285t129.5 215t195 135.5t243 46.5q182 0 305.5 -79t192.5 -249l-242 -56q-51 83 -117.5 126.5t-150.5 43.5q-96 0 -175 -56.5t-126 -161.5t-47 -250q0 -136 41.5 -238t116.5 -159t174 -57q84 0 150.5 37.5
t105 107.5t38.5 169h52q0 -162 -38.5 -281t-119.5 -184t-208 -65zM1008 0l-34 286v224l-292 6v150h518v-666h-192zM526.095 1631.4q0 66.7178 45.1328 111.85q45.1318 45.1328 115.774 45.1328q70.6416 0 117.736 -45.1328q47.0947 -45.1318 47.0947 -111.85
q0 -65.7363 -47.0947 -109.397q-47.0947 -43.6602 -117.736 -43.6602q-70.6426 0 -115.774 44.1514q-45.1328 44.1514 -45.1328 108.906z" />
    <glyph glyph-name="gdotaccent" unicode="&#x121;" horiz-adv-x="1164" 
d="M560 -502q-167 0 -285.5 46t-181.5 120.5t-63 161.5q0 103 75 159.5t189 56.5l172 -64q-98 0 -151 -37t-53 -103q0 -69 79.5 -110.5t218.5 -41.5q101 0 175 30t114.5 78t40.5 102q0 36 -24 59t-74 23h-326q-98 0 -178.5 31.5t-128 85t-47.5 119.5q0 61 34 105.5
t92.5 68.5t131.5 24l60 -78q-29 0 -55.5 -11.5t-43.5 -33.5t-17 -55q0 -40 34 -65t118 -25h326q155 0 243.5 -57t88.5 -175q0 -105 -69 -199.5t-195.5 -154.5t-299.5 -60zM572 300q-115 0 -210.5 43.5t-152.5 121.5t-57 183q0 107 57 186t152.5 121.5t210.5 42.5
q112 0 207 -42.5t153 -121.5t58 -186q0 -105 -58 -183t-153 -121.5t-207 -43.5zM574 464q92 0 138 53t46 131q0 84 -46.5 135t-139.5 51q-90 0 -138 -51t-48 -135q0 -78 48.5 -131t139.5 -53zM916 842l-108 62q0 87 40.5 152.5t108 101.5t149.5 36l-12 -226
q-87 0 -132.5 -30.5t-45.5 -95.5zM432.095 1305.4q0 66.7178 45.1328 111.85q45.1318 45.1328 115.774 45.1328q70.6416 0 117.736 -45.1328q47.0947 -45.1318 47.0947 -111.85q0 -65.7363 -47.0947 -109.397q-47.0947 -43.6602 -117.736 -43.6602
q-70.6426 0 -115.774 44.1514q-45.1328 44.1514 -45.1328 108.906z" />
    <glyph glyph-name="uni0122" unicode="&#x122;" horiz-adv-x="1354" 
d="M660 -28q-159 0 -287 84t-203.5 234.5t-75.5 351.5q0 159 46.5 285t129.5 215t195 135.5t243 46.5q182 0 305.5 -79t192.5 -249l-242 -56q-51 83 -117.5 126.5t-150.5 43.5q-96 0 -175 -56.5t-126 -161.5t-47 -250q0 -136 41.5 -238t116.5 -159t174 -57q84 0 150.5 37.5
t105 107.5t38.5 169h52q0 -162 -38.5 -281t-119.5 -184t-208 -65zM1008 0l-34 286v224l-292 6v150h518v-666h-192zM630 -449l-109 56q49 25 86 55t51 70q-38 6 -63 30t-22 62q3 40 35 66.5t77 26.5q57 0 88.5 -40t27.5 -98q-3 -64 -48 -127.5t-123 -100.5z" />
    <glyph glyph-name="uni0123" unicode="&#x123;" horiz-adv-x="1164" 
d="M560 -502q-167 0 -285.5 46t-181.5 120.5t-63 161.5q0 103 75 159.5t189 56.5l172 -64q-98 0 -151 -37t-53 -103q0 -69 79.5 -110.5t218.5 -41.5q101 0 175 30t114.5 78t40.5 102q0 36 -24 59t-74 23h-326q-98 0 -178.5 31.5t-128 85t-47.5 119.5q0 61 34 105.5
t92.5 68.5t131.5 24l60 -78q-29 0 -55.5 -11.5t-43.5 -33.5t-17 -55q0 -40 34 -65t118 -25h326q155 0 243.5 -57t88.5 -175q0 -105 -69 -199.5t-195.5 -154.5t-299.5 -60zM572 300q-115 0 -210.5 43.5t-152.5 121.5t-57 183q0 107 57 186t152.5 121.5t210.5 42.5
q112 0 207 -42.5t153 -121.5t58 -186q0 -105 -58 -183t-153 -121.5t-207 -43.5zM574 464q92 0 138 53t46 131q0 84 -46.5 135t-139.5 51q-90 0 -138 -51t-48 -135q0 -78 48.5 -131t139.5 -53zM916 842l-108 62q0 87 40.5 152.5t108 101.5t149.5 36l-12 -226
q-87 0 -132.5 -30.5t-45.5 -95.5zM600 1400l109 -56q-49 -25 -86 -55t-51 -70q38 -6 63 -30t22 -62q-3 -40 -35 -66.5t-77 -26.5q-57 0 -88.5 40t-27.5 98q3 64 48 127.5t123 100.5z" />
    <glyph glyph-name="Hbar" unicode="&#x126;" horiz-adv-x="1411" 
d="M186 1298h236v-604h566v604h236v-1298h-236v487h-566v-487h-236v1298zM306 842v172h811v-172h-811z" />
    <glyph glyph-name="hbar" unicode="&#x127;" horiz-adv-x="1246" 
d="M852 0v568q0 108 -52 163t-136 55q-71 0 -125.5 -39t-85.5 -117.5t-31 -195.5h-78q0 189 47 314.5t133 187.5t202 62q120 0 200.5 -53.5t121 -150.5t40.5 -226v-568h-236zM186 0v1372h236v-1372h-236zM64 1071v154h524v-154h-524z" />
    <glyph glyph-name="Imacron" unicode="&#x12a;" horiz-adv-x="609" 
d="M186 0v1298h236v-1298h-236zM76.5928 1687h456.042v-193h-456.042v193z" />
    <glyph glyph-name="imacron" unicode="&#x12b;" horiz-adv-x="656" 
d="M206 0v974h236v-974h-236zM95.5928 1361h456.042v-193h-456.042v193z" />
    <glyph glyph-name="Iogonek" unicode="&#x12e;" horiz-adv-x="609" 
d="M186 0v1298h236v-1298h-236zM550 -325q-65 -35 -132.5 -53t-132.5 -18q-107 0 -177 48t-70 137q0 72 51.5 140.5t151.5 109.5l180 -39q-103 -36 -163.5 -77.5t-60.5 -92.5q0 -39 33 -54.5t73 -15.5q43 0 87.5 14t104.5 46z" />
    <glyph glyph-name="iogonek" unicode="&#x12f;" horiz-adv-x="656" 
d="M206 0v974h236v-974h-236zM173.095 1305.4q0 66.7178 45.1328 111.85q45.1318 45.1328 115.774 45.1328q70.6416 0 117.736 -45.1328q47.0947 -45.1318 47.0947 -111.85q0 -65.7363 -47.0947 -109.397q-47.0947 -43.6602 -117.736 -43.6602q-70.6426 0 -115.774 44.1514
q-45.1328 44.1514 -45.1328 108.906zM570 -325q-65 -35 -132.5 -53t-132.5 -18q-107 0 -177 48t-70 137q0 72 51.5 140.5t151.5 109.5l180 -39q-103 -36 -163.5 -77.5t-60.5 -92.5q0 -39 33 -54.5t73 -15.5q43 0 87.5 14t104.5 46z" />
    <glyph glyph-name="Idotaccent" unicode="&#x130;" horiz-adv-x="609" 
d="M186 0v1298h236v-1298h-236zM153.095 1631.4q0 66.7178 45.1328 111.85q45.1318 45.1328 115.774 45.1328q70.6416 0 117.736 -45.1328q47.0947 -45.1318 47.0947 -111.85q0 -65.7363 -47.0947 -109.397q-47.0947 -43.6602 -117.736 -43.6602
q-70.6426 0 -115.774 44.1514q-45.1328 44.1514 -45.1328 108.906z" />
    <glyph glyph-name="dotlessi" unicode="&#x131;" horiz-adv-x="656" 
d="M206 0v974h236v-974h-236z" />
    <glyph glyph-name="uni0136" unicode="&#x136;" horiz-adv-x="1308" 
d="M936 1298h324l-856 -876v322zM648 762l648 -762h-304l-508 608zM186 1298h238v-1298h-238v1298zM607 -449l-109 56q49 25 86 55t51 70q-38 6 -63 30t-22 62q3 40 35 66.5t77 26.5q57 0 88.5 -40t27.5 -98q-3 -64 -48 -127.5t-123 -100.5z" />
    <glyph glyph-name="uni0137" unicode="&#x137;" horiz-adv-x="1183" 
d="M186 0v1372h236v-1372h-236zM390 602l416 368h320l-736 -612v244zM862 0l-434 618l224 54l498 -672h-288zM545 -449l-109 56q49 25 86 55t51 70q-38 6 -63 30t-22 62q3 40 35 66.5t77 26.5q57 0 88.5 -40t27.5 -98q-3 -64 -48 -127.5t-123 -100.5z" />
    <glyph glyph-name="Lacute" unicode="&#x139;" horiz-adv-x="988" 
d="M422 1298v-1092h534v-206h-770v1298h236zM456 1440l-113 92l374 373l158 -128z" />
    <glyph glyph-name="lacute" unicode="&#x13a;" horiz-adv-x="609" 
d="M186 0v1372h236v-1372h-236zM240 1541l-113 92l374 373l158 -128z" />
    <glyph glyph-name="uni013B" unicode="&#x13b;" horiz-adv-x="988" 
d="M422 1298v-1092h534v-206h-770v1298h236zM447 -449l-109 56q49 25 86 55t51 70q-38 6 -63 30t-22 62q3 40 35 66.5t77 26.5q57 0 88.5 -40t27.5 -98q-3 -64 -48 -127.5t-123 -100.5z" />
    <glyph glyph-name="uni013C" unicode="&#x13c;" horiz-adv-x="609" 
d="M186 0v1372h236v-1372h-236zM257 -449l-109 56q49 25 86 55t51 70q-38 6 -63 30t-22 62q3 40 35 66.5t77 26.5q57 0 88.5 -40t27.5 -98q-3 -64 -48 -127.5t-123 -100.5z" />
    <glyph glyph-name="Lcaron" unicode="&#x13d;" horiz-adv-x="988" 
d="M422 1298v-1092h534v-206h-770v1298h236zM528 1442l-356 305l139 110l258 -260h-83l260 260l139 -110z" />
    <glyph glyph-name="lcaron" unicode="&#x13e;" horiz-adv-x="609" 
d="M186 0v1372h236v-1372h-236zM312 1543l-356 305l139 110l258 -260h-83l260 260l139 -110z" />
    <glyph glyph-name="Lslash" unicode="&#x141;" horiz-adv-x="988" 
d="M73 628l-36 202l546 91l36 -202zM422 1298v-1092h534v-206h-770v1298h236z" />
    <glyph glyph-name="lslash" unicode="&#x142;" horiz-adv-x="609" 
d="M61 721l-30 150l545 91l30 -150zM186 0v1372h236v-1372h-236z" />
    <glyph glyph-name="Nacute" unicode="&#x143;" horiz-adv-x="1434" 
d="M182 1298h258l590 -926h-18v926h236v-1298h-240l-628 982h38v-982h-236v1298zM652 1440l-113 92l374 373l158 -128z" />
    <glyph glyph-name="nacute" unicode="&#x144;" horiz-adv-x="1246" 
d="M852 0v568q0 108 -52 163t-136 55q-71 0 -125.5 -39t-85.5 -117.5t-31 -195.5h-78q0 189 47 314.5t133 187.5t202 62q120 0 200.5 -53.5t121 -150.5t40.5 -226v-568h-236zM186 0v970h206l30 -192v-778h-236zM573 1121l-113 92l374 373l158 -128z" />
    <glyph glyph-name="uni0145" unicode="&#x145;" horiz-adv-x="1434" 
d="M182 1298h258l590 -926h-18v926h236v-1298h-240l-628 982h38v-982h-236v1298zM670 -449l-109 56q49 25 86 55t51 70q-38 6 -63 30t-22 62q3 40 35 66.5t77 26.5q57 0 88.5 -40t27.5 -98q-3 -64 -48 -127.5t-123 -100.5z" />
    <glyph glyph-name="uni0146" unicode="&#x146;" horiz-adv-x="1246" 
d="M852 0v568q0 108 -52 163t-136 55q-71 0 -125.5 -39t-85.5 -117.5t-31 -195.5h-78q0 189 47 314.5t133 187.5t202 62q120 0 200.5 -53.5t121 -150.5t40.5 -226v-568h-236zM186 0v970h206l30 -192v-778h-236zM576 -449l-109 56q49 25 86 55t51 70q-38 6 -63 30t-22 62
q3 40 35 66.5t77 26.5q57 0 88.5 -40t27.5 -98q-3 -64 -48 -127.5t-123 -100.5z" />
    <glyph glyph-name="Ncaron" unicode="&#x147;" horiz-adv-x="1434" 
d="M182 1298h258l590 -926h-18v926h236v-1298h-240l-628 982h38v-982h-236v1298zM724 1442l-356 305l139 110l258 -260h-83l260 260l139 -110z" />
    <glyph glyph-name="ncaron" unicode="&#x148;" horiz-adv-x="1246" 
d="M852 0v568q0 108 -52 163t-136 55q-71 0 -125.5 -39t-85.5 -117.5t-31 -195.5h-78q0 189 47 314.5t133 187.5t202 62q120 0 200.5 -53.5t121 -150.5t40.5 -226v-568h-236zM186 0v970h206l30 -192v-778h-236zM645 1123l-356 305l139 110l258 -260h-83l260 260l139 -110z
" />
    <glyph glyph-name="Eng" unicode="&#x14a;" horiz-adv-x="1434" 
d="M920 -502q-79 0 -145.5 17t-135.5 45l5 204q51 -25 107.5 -42.5t110.5 -17.5q73 0 116.5 42t42.5 142l-8 779h235v-783q0 -208 -86.5 -297t-241.5 -89zM182 1298h258l590 -926h-18v926h236v-1298l-83 -240l-785 1222h38v-982h-236v1298z" />
    <glyph glyph-name="eng" unicode="&#x14b;" horiz-adv-x="1277" 
d="M761 -502q-78 0 -144.5 17t-135.5 45l4 204q51 -25 107 -42.5t111 -17.5q73 0 111.5 42t38.5 142v620h236v-624q0 -208 -86.5 -297t-241.5 -89zM852 0v568q0 108 -52 163t-136 55q-71 0 -125.5 -39t-85.5 -117.5t-31 -195.5h-78q0 189 47 314.5t133 187.5t202 62
q120 0 200.5 -53.5t121 -150.5t40.5 -226v-568h-236zM186 0v970h206l30 -192v-778h-236z" />
    <glyph glyph-name="Omacron" unicode="&#x14c;" horiz-adv-x="1365" 
d="M682 -28q-173 0 -305.5 76t-207.5 227t-75 375q0 228 75 377.5t207.5 223t305.5 73.5q174 0 307 -75.5t208 -225.5t75 -373q0 -227 -75 -378t-208 -225.5t-307 -74.5zM682 186q159 0 252.5 120t93.5 346q0 218 -93.5 339t-252.5 121q-156 0 -250 -121.5t-94 -340.5
q0 -225 94 -344.5t250 -119.5zM341 1687h691v-193h-691v193z" />
    <glyph glyph-name="omacron" unicode="&#x14d;" horiz-adv-x="1132" 
d="M568 -28q-133 0 -240.5 57t-170.5 170.5t-63 284.5q0 174 63 288t170.5 170t240.5 56q131 0 237.5 -56t169.5 -170t63 -288q0 -171 -63 -284.5t-169.5 -170.5t-237.5 -57zM560 178q70 0 124.5 34.5t86 102.5t31.5 169q0 154 -60.5 232t-165.5 78q-71 0 -126 -34.5
t-86.5 -103.5t-31.5 -172q0 -152 61.5 -229t166.5 -77zM221 1361h691v-193h-691v193z" />
    <glyph glyph-name="Ohungarumlaut" unicode="&#x150;" horiz-adv-x="1365" 
d="M682 -28q-173 0 -305.5 76t-207.5 227t-75 375q0 228 75 377.5t207.5 223t305.5 73.5q174 0 307 -75.5t208 -225.5t75 -373q0 -227 -75 -378t-208 -225.5t-307 -74.5zM682 186q159 0 252.5 120t93.5 346q0 218 -93.5 339t-252.5 121q-156 0 -250 -121.5t-94 -340.5
q0 -225 94 -344.5t250 -119.5zM866 1434l-118 21l35 339l165 -39zM596 1449l-121 17l12 342l168 -28z" />
    <glyph glyph-name="ohungarumlaut" unicode="&#x151;" horiz-adv-x="1132" 
d="M568 -28q-133 0 -240.5 57t-170.5 170.5t-63 284.5q0 174 63 288t170.5 170t240.5 56q131 0 237.5 -56t169.5 -170t63 -288q0 -171 -63 -284.5t-169.5 -170.5t-237.5 -57zM560 178q70 0 124.5 34.5t86 102.5t31.5 169q0 154 -60.5 232t-165.5 78q-71 0 -126 -34.5
t-86.5 -103.5t-31.5 -172q0 -152 61.5 -229t166.5 -77zM746 1108l-118 21l35 339l165 -39zM476 1123l-121 17l12 342l168 -28z" />
    <glyph glyph-name="OE" unicode="&#x152;" horiz-adv-x="1791" 
d="M652 -28q-162 0 -288 76.5t-198 228t-72 376.5q0 226 72 374.5t198 222.5t287 74q127 0 226.5 -39t154.5 -110l-137 -118q-48 25 -109.5 40t-121.5 15q-154 0 -240 -122t-86 -344q0 -218 86 -339t244 -121q61 0 119.5 16t114.5 43l130 -151q-55 -49 -154 -85.5
t-226 -36.5zM885 0v1298h751v-204h-568l46 54v-449l-46 53h532v-204h-532l46 53v-448l-46 53h568v-206h-751z" />
    <glyph glyph-name="oe" unicode="&#x153;" horiz-adv-x="1693" 
d="M545.959 -28q-126.668 0 -229.051 57q-102.382 57 -162.383 170.5q-60 113.5 -60 284.5q0 174 60 288q60.001 114 162.383 170q102.383 56 229.051 56q124.764 0 226.193 -56t161.431 -170t60.001 -288q0 -171 -60.001 -284.5t-161.431 -170.5t-226.193 -57zM538.34 178
q66.668 0 118.573 34.5t81.9053 102.5t30 169q0 154 -57.6191 232q-57.6201 78 -157.621 78q-67.6201 0 -120.002 -34.5q-52.3809 -34.5 -82.3818 -103.5q-30 -69 -30 -172q0 -152 58.5723 -229t158.573 -77zM1200.91 -28q-118.097 0 -216.193 64t-157.145 179.5
t-59.0479 270.5q0 160 58.5713 275q58.5723 115 156.669 176t217.146 61q110.478 0 190.955 -46.5q80.4766 -46.5 129.525 -126q49.0479 -79.5 66.1904 -179.5q17.1436 -100 1.90527 -206h-641.913v128h482.863l-43.8096 -30q2.85645 47 -4.28613 95t-27.1426 88
q-20.001 40 -56.668 64.5t-93.8105 24.5q-68.5723 0 -116.191 -36q-47.6201 -36 -72.3828 -98q-24.7617 -62 -24.7617 -140v-94q0 -82 23.334 -145q23.333 -63 69.5244 -99q46.1904 -36 116.668 -36q65.7148 0 110.478 32t57.1436 96h226.669q-14.2852 -94 -67.1436 -165.5
q-52.8574 -71.5 -136.668 -112t-190.479 -40.5z" />
    <glyph glyph-name="Racute" unicode="&#x154;" horiz-adv-x="1287" 
d="M186 0v1298h480q233 0 357.5 -109t124.5 -289q0 -177 -124.5 -285.5t-357.5 -108.5h-244v-506h-236zM888 0l-344 608h252l400 -608h-308zM422 664h220q130 0 197 59.5t67 154.5q0 97 -61 156.5t-179 59.5h-244v-430zM579 1440l-113 92l374 373l158 -128z" />
    <glyph glyph-name="racute" unicode="&#x155;" horiz-adv-x="785" 
d="M186 0v974h236v-974h-236zM364 426q0 191 43 316t115.5 185.5t161.5 60.5q24 0 45.5 -3t42.5 -9l-4 -236q-26 6 -56 10t-54 4q-78 0 -130.5 -37.5t-79 -110.5t-26.5 -180h-58zM415 1114l-113 92l374 373l158 -128z" />
    <glyph glyph-name="uni0156" unicode="&#x156;" horiz-adv-x="1287" 
d="M186 0v1298h480q233 0 357.5 -109t124.5 -289q0 -177 -124.5 -285.5t-357.5 -108.5h-244v-506h-236zM888 0l-344 608h252l400 -608h-308zM422 664h220q130 0 197 59.5t67 154.5q0 97 -61 156.5t-179 59.5h-244v-430zM597 -449l-109 56q49 25 86 55t51 70q-38 6 -63 30
t-22 62q3 40 35 66.5t77 26.5q57 0 88.5 -40t27.5 -98q-3 -64 -48 -127.5t-123 -100.5z" />
    <glyph glyph-name="uni0157" unicode="&#x157;" horiz-adv-x="785" 
d="M186 0v974h236v-974h-236zM364 426q0 191 43 316t115.5 185.5t161.5 60.5q24 0 45.5 -3t42.5 -9l-4 -236q-26 6 -56 10t-54 4q-78 0 -130.5 -37.5t-79 -110.5t-26.5 -180h-58zM465 -445l-109 56q49 25 86 55t51 70q-38 6 -63 30t-22 62q3 40 35 66.5t77 26.5
q57 0 88.5 -40t27.5 -98q-3 -64 -48 -127.5t-123 -100.5z" />
    <glyph glyph-name="Rcaron" unicode="&#x158;" horiz-adv-x="1287" 
d="M186 0v1298h480q233 0 357.5 -109t124.5 -289q0 -177 -124.5 -285.5t-357.5 -108.5h-244v-506h-236zM888 0l-344 608h252l400 -608h-308zM422 664h220q130 0 197 59.5t67 154.5q0 97 -61 156.5t-179 59.5h-244v-430zM651 1442l-356 305l139 110l258 -260h-83l260 260
l139 -110z" />
    <glyph glyph-name="rcaron" unicode="&#x159;" horiz-adv-x="785" 
d="M186 0v974h236v-974h-236zM364 426q0 191 43 316t115.5 185.5t161.5 60.5q24 0 45.5 -3t42.5 -9l-4 -236q-26 6 -56 10t-54 4q-78 0 -130.5 -37.5t-79 -110.5t-26.5 -180h-58zM487 1116l-356 305l139 110l258 -260h-83l260 260l139 -110z" />
    <glyph glyph-name="Sacute" unicode="&#x15a;" horiz-adv-x="1275" 
d="M638 -28q-135 0 -248.5 47t-184 143t-75.5 244h232q0 -75 37 -123t99.5 -71.5t137.5 -23.5q72 0 128.5 19t89 54.5t32.5 84.5q0 65 -39.5 102t-126.5 68l-256 102q-150 59 -230 137t-80 215q0 158 125 256t349 98q218 0 337 -101.5t135 -282.5h-232q-13 77 -70 123.5
t-170 46.5q-100 0 -158 -41.5t-58 -104.5q0 -54 36.5 -85.5t113.5 -60.5l284 -110q144 -56 221 -141t77 -213q0 -117 -59 -202.5t-172 -132.5t-275 -47zM573 1440l-113 92l374 373l158 -128z" />
    <glyph glyph-name="sacute" unicode="&#x15b;" horiz-adv-x="1055" 
d="M548 -28q-140 0 -240.5 38.5t-154.5 111t-55 174.5h218q3 -72 57 -105t147 -33q51 0 90.5 15t61.5 41t22 58q0 41 -29.5 64.5t-94.5 43.5l-212 76q-114 41 -175 108t-61 160q0 123 111.5 198.5t298.5 75.5q186 0 287.5 -81.5t104.5 -206.5h-222q-5 48 -46 76t-124 28
q-75 0 -117.5 -30.5t-42.5 -71.5q0 -69 118 -104l230 -86q112 -38 174 -98t62 -152q0 -77 -51.5 -145.5t-143.5 -111.5t-213 -43zM463 1114l-113 92l374 373l158 -128z" />
    <glyph glyph-name="Scedilla" unicode="&#x15e;" horiz-adv-x="1275" 
d="M638 -28q-135 0 -248.5 47t-184 143t-75.5 244h232q0 -75 37 -123t99.5 -71.5t137.5 -23.5q72 0 128.5 19t89 54.5t32.5 84.5q0 65 -39.5 102t-126.5 68l-256 102q-150 59 -230 137t-80 215q0 158 125 256t349 98q218 0 337 -101.5t135 -282.5h-232q-13 77 -70 123.5
t-170 46.5q-100 0 -158 -41.5t-58 -104.5q0 -54 36.5 -85.5t113.5 -60.5l284 -110q144 -56 221 -141t77 -213q0 -117 -59 -202.5t-172 -132.5t-275 -47zM443 -367l33 83q68 -32 120.5 -36.5t84 13t34.5 49.5q3 28 -19.5 49.5t-63 38.5t-96.5 29l78 220l104 -15l-71 -199
l-31 60q97 -15 157 -45t86.5 -69t23.5 -83q-4 -58 -49.5 -93.5t-113.5 -47.5t-141.5 -1t-135.5 47z" />
    <glyph glyph-name="scedilla" unicode="&#x15f;" horiz-adv-x="1055" 
d="M548 -28q-140 0 -240.5 38.5t-154.5 111t-55 174.5h218q3 -72 57 -105t147 -33q51 0 90.5 15t61.5 41t22 58q0 41 -29.5 64.5t-94.5 43.5l-212 76q-114 41 -175 108t-61 160q0 123 111.5 198.5t298.5 75.5q186 0 287.5 -81.5t104.5 -206.5h-222q-5 48 -46 76t-124 28
q-75 0 -117.5 -30.5t-42.5 -71.5q0 -69 118 -104l230 -86q112 -38 174 -98t62 -152q0 -77 -51.5 -145.5t-143.5 -111.5t-213 -43zM332 -366l33 83q68 -32 120.5 -36.5t84 13t34.5 49.5q3 28 -19.5 49.5t-63 38.5t-96.5 29l78 220l104 -15l-71 -199l-31 60q97 -15 157 -45
t86.5 -69t23.5 -83q-4 -58 -49.5 -93.5t-113.5 -47.5t-141.5 -1t-135.5 47z" />
    <glyph glyph-name="Scaron" unicode="&#x160;" horiz-adv-x="1275" 
d="M638 -28q-135 0 -248.5 47t-184 143t-75.5 244h232q0 -75 37 -123t99.5 -71.5t137.5 -23.5q72 0 128.5 19t89 54.5t32.5 84.5q0 65 -39.5 102t-126.5 68l-256 102q-150 59 -230 137t-80 215q0 158 125 256t349 98q218 0 337 -101.5t135 -282.5h-232q-13 77 -70 123.5
t-170 46.5q-100 0 -158 -41.5t-58 -104.5q0 -54 36.5 -85.5t113.5 -60.5l284 -110q144 -56 221 -141t77 -213q0 -117 -59 -202.5t-172 -132.5t-275 -47zM645 1442l-356 305l139 110l258 -260h-83l260 260l139 -110z" />
    <glyph glyph-name="scaron" unicode="&#x161;" horiz-adv-x="1055" 
d="M548 -28q-140 0 -240.5 38.5t-154.5 111t-55 174.5h218q3 -72 57 -105t147 -33q51 0 90.5 15t61.5 41t22 58q0 41 -29.5 64.5t-94.5 43.5l-212 76q-114 41 -175 108t-61 160q0 123 111.5 198.5t298.5 75.5q186 0 287.5 -81.5t104.5 -206.5h-222q-5 48 -46 76t-124 28
q-75 0 -117.5 -30.5t-42.5 -71.5q0 -69 118 -104l230 -86q112 -38 174 -98t62 -152q0 -77 -51.5 -145.5t-143.5 -111.5t-213 -43zM535 1116l-356 305l139 110l258 -260h-83l260 260l139 -110z" />
    <glyph glyph-name="uni0162" unicode="&#x162;" horiz-adv-x="1063" 
d="M12 1094v204h1040v-204h-455l53 54v-1148h-236v1148l53 -54h-455zM273 -358l33 83q68 -32 120.5 -36.5t84 13t34.5 49.5q3 28 -19.5 49.5t-63 38.5t-96.5 29l78 220l104 -15l-71 -199l-31 60q97 -15 157 -45t86.5 -69t23.5 -83q-4 -58 -49.5 -93.5t-113.5 -47.5
t-141.5 -1t-135.5 47z" />
    <glyph glyph-name="uni0163" unicode="&#x163;" horiz-adv-x="789" 
d="M514 -28q-86 0 -157.5 32t-114 98t-42.5 168v958h236v-950q0 -120 114 -120q35 0 70 8t80 24l34 -166q-56 -22 -109 -37t-111 -15zM64 814v156h636v-156h-636zM245 -361l33 83q68 -32 120.5 -36.5t84 13t34.5 49.5q3 28 -19.5 49.5t-63 38.5t-96.5 29l78 220l104 -15
l-71 -199l-31 60q97 -15 157 -45t86.5 -69t23.5 -83q-4 -58 -49.5 -93.5t-113.5 -47.5t-141.5 -1t-135.5 47z" />
    <glyph glyph-name="Tcaron" unicode="&#x164;" horiz-adv-x="1063" 
d="M12 1094v204h1040v-204h-455l53 54v-1148h-236v1148l53 -54h-455zM539 1442l-356 305l139 110l258 -260h-83l260 260l139 -110z" />
    <glyph glyph-name="tcaron" unicode="&#x165;" horiz-adv-x="789" 
d="M514 -28q-86 0 -157.5 32t-114 98t-42.5 168v958h236v-950q0 -120 114 -120q35 0 70 8t80 24l34 -166q-56 -22 -109 -37t-111 -15zM64 814v156h636v-156h-636zM398 1309l-356 305l139 110l258 -260h-83l260 260l139 -110z" />
    <glyph glyph-name="Tbar" unicode="&#x166;" horiz-adv-x="1063" 
d="M12 1094v204h1040v-204h-455l53 54v-1148h-236v1148l53 -54h-455zM163.568 501.217v192.082h693.753v-192.082h-693.753z" />
    <glyph glyph-name="tbar" unicode="&#x167;" horiz-adv-x="789" 
d="M514 -28q-86 0 -157.5 32t-114 98t-42.5 168v958h236v-950q0 -120 114 -120q35 0 70 8t80 24l34 -166q-56 -22 -109 -37t-111 -15zM64 814v156h636v-156h-636zM72.1055 522.437v176.516h580.969v-176.516h-580.969z" />
    <glyph glyph-name="Umacron" unicode="&#x16a;" horiz-adv-x="1380" 
d="M166 1298h236v-808q0 -160 81.5 -231t208.5 -71q128 0 209 71t81 231v808h236v-808q0 -164 -63 -280t-180.5 -177t-282.5 -61t-282.5 61t-180.5 177t-63 280v808zM345 1687h691v-193h-691v193z" />
    <glyph glyph-name="umacron" unicode="&#x16b;" horiz-adv-x="1254" 
d="M832 974h236v-974h-236v974zM166 974h236v-596q0 -95 47 -142.5t129 -47.5q70 0 127.5 36.5t92 108t34.5 177.5h64q0 -178 -46 -295t-127 -175t-187 -58q-104 0 -188 37t-133 119t-49 216v620zM298 1361h691v-193h-691v193z" />
    <glyph glyph-name="Uring" unicode="&#x16e;" horiz-adv-x="1380" 
d="M166 1298h236v-808q0 -160 81.5 -231t208.5 -71q128 0 209 71t81 231v808h236v-808q0 -164 -63 -280t-180.5 -177t-282.5 -61t-282.5 61t-180.5 177t-63 280v808zM691 1402q-65 0 -119.5 32t-86.5 86.5t-32 119.5t32 119t86 86.5t120 32.5q65 0 119 -32.5t86.5 -86.5
t32.5 -119t-32.5 -119t-86.5 -86.5t-119 -32.5zM691 1560q34 0 57 23t23 57t-23 57.5t-57 23.5t-57 -23.5t-23 -57.5t23 -57t57 -23z" />
    <glyph glyph-name="uring" unicode="&#x16f;" horiz-adv-x="1254" 
d="M832 974h236v-974h-236v974zM166 974h236v-596q0 -95 47 -142.5t129 -47.5q70 0 127.5 36.5t92 108t34.5 177.5h64q0 -178 -46 -295t-127 -175t-187 -58q-104 0 -188 37t-133 119t-49 216v620zM644 1076q-65 0 -119.5 32t-86.5 86.5t-32 119.5t32 119t86 86.5t120 32.5
q65 0 119 -32.5t86.5 -86.5t32.5 -119t-32.5 -119t-86.5 -86.5t-119 -32.5zM644 1234q34 0 57 23t23 57t-23 57.5t-57 23.5t-57 -23.5t-23 -57.5t23 -57t57 -23z" />
    <glyph glyph-name="Uhungarumlaut" unicode="&#x170;" horiz-adv-x="1380" 
d="M166 1298h236v-808q0 -160 81.5 -231t208.5 -71q128 0 209 71t81 231v808h236v-808q0 -164 -63 -280t-180.5 -177t-282.5 -61t-282.5 61t-180.5 177t-63 280v808zM869 1434l-118 21l35 339l165 -39zM599 1449l-121 17l12 342l168 -28z" />
    <glyph glyph-name="uhungarumlaut" unicode="&#x171;" horiz-adv-x="1254" 
d="M832 974h236v-974h-236v974zM166 974h236v-596q0 -95 47 -142.5t129 -47.5q70 0 127.5 36.5t92 108t34.5 177.5h64q0 -178 -46 -295t-127 -175t-187 -58q-104 0 -188 37t-133 119t-49 216v620zM822 1108l-118 21l35 339l165 -39zM552 1123l-121 17l12 342l168 -28z" />
    <glyph glyph-name="Uogonek" unicode="&#x172;" horiz-adv-x="1380" 
d="M166 1298h236v-808q0 -160 81.5 -231t208.5 -71q128 0 209 71t81 231v808h236v-808q0 -164 -63 -280t-180.5 -177t-282.5 -61t-282.5 61t-180.5 177t-63 280v808zM994 -325q-65 -35 -132.5 -53t-132.5 -18q-107 0 -177 48t-70 137q0 72 51.5 140.5t151.5 109.5l180 -39
q-103 -36 -163.5 -77.5t-60.5 -92.5q0 -39 33 -54.5t73 -15.5q43 0 87.5 14t104.5 46z" />
    <glyph glyph-name="uogonek" unicode="&#x173;" horiz-adv-x="1254" 
d="M832 974h236v-974h-236v974zM166 974h236v-596q0 -95 47 -142.5t129 -47.5q70 0 127.5 36.5t92 108t34.5 177.5h64q0 -178 -46 -295t-127 -175t-187 -58q-104 0 -188 37t-133 119t-49 216v620zM1197 -325q-65 -35 -132.5 -53t-132.5 -18q-107 0 -177 48t-70 137
q0 72 51.5 140.5t151.5 109.5l180 -39q-103 -36 -163.5 -77.5t-60.5 -92.5q0 -39 33 -54.5t73 -15.5q43 0 87.5 14t104.5 46z" />
    <glyph glyph-name="Wcircumflex" unicode="&#x174;" horiz-adv-x="1893" 
d="M20 1298h264l314 -1090h-60l310 1004h160l322 -988h-54l330 1074h266l-446 -1298h-248l-254 766h22l-254 -766h-248zM725 1435l-139 110l356 305l357 -305l-139 -110l-260 234h83z" />
    <glyph glyph-name="wcircumflex" unicode="&#x175;" horiz-adv-x="1516" 
d="M24 970h246l210 -736h-24l198 684h214l198 -686h-24l210 738h236l-320 -970h-232l-198 644h36l-194 -644h-234zM540 1101l-139 110l356 305l357 -305l-139 -110l-260 234h83z" />
    <glyph glyph-name="Ycircumflex" unicode="&#x176;" horiz-adv-x="1173" 
d="M14 1298h280l310 -558h-46l322 558h278l-462 -762v-536h-236v536zM369 1427l-139 110l356 305l357 -305l-139 -110l-260 234h83z" />
    <glyph glyph-name="ycircumflex" unicode="&#x177;" horiz-adv-x="1007" 
d="M38 970h268l258 -764h-42l222 764h240l-372 -1146q-57 -172 -140.5 -249t-203.5 -77q-69 0 -134.5 15.5t-133.5 48.5v208q55 -34 106.5 -50t103.5 -16q47 0 82.5 25.5t61.5 71t44 105.5l30 94zM286 1101l-139 110l356 305l357 -305l-139 -110l-260 234h83z" />
    <glyph glyph-name="Ydieresis" unicode="&#x178;" horiz-adv-x="1173" 
d="M14 1298h280l310 -558h-46l322 558h278l-462 -762v-536h-236v536zM778 1468q-58 0 -99 38t-41 95t41 95.5t99 38.5q62 0 102 -38.5t40 -95.5t-40 -95t-102 -38zM394 1468q-61 0 -100.5 38t-39.5 93q0 59 39.5 96.5t100.5 37.5q62 0 102 -37.5t40 -96.5q0 -55 -40 -93
t-102 -38z" />
    <glyph glyph-name="Zacute" unicode="&#x179;" horiz-adv-x="1257" 
d="M146 0v204l754 962v-86l-754 2v216h982v-202l-708 -908l-6 30l714 -2v-216h-982zM591 1440l-113 92l374 373l158 -128z" />
    <glyph glyph-name="zacute" unicode="&#x17a;" horiz-adv-x="990" 
d="M114 0v192l504 588h-504v190h764v-190l-488 -588h488v-192h-764zM431 1114l-113 92l374 373l158 -128z" />
    <glyph glyph-name="Zdotaccent" unicode="&#x17b;" horiz-adv-x="1257" 
d="M146 0v204l754 962v-86l-754 2v216h982v-202l-708 -908l-6 30l714 -2v-216h-982zM505.095 1631.4q0 66.7178 45.1328 111.85q45.1318 45.1328 115.774 45.1328q70.6416 0 117.736 -45.1328q47.0947 -45.1318 47.0947 -111.85q0 -65.7363 -47.0947 -109.397
q-47.0947 -43.6602 -117.736 -43.6602q-70.6426 0 -115.774 44.1514q-45.1328 44.1514 -45.1328 108.906z" />
    <glyph glyph-name="zdotaccent" unicode="&#x17c;" horiz-adv-x="990" 
d="M114 0v192l504 588h-504v190h764v-190l-488 -588h488v-192h-764zM345.095 1305.4q0 66.7178 45.1328 111.85q45.1318 45.1328 115.774 45.1328q70.6416 0 117.736 -45.1328q47.0947 -45.1318 47.0947 -111.85q0 -65.7363 -47.0947 -109.397
q-47.0947 -43.6602 -117.736 -43.6602q-70.6426 0 -115.774 44.1514q-45.1328 44.1514 -45.1328 108.906z" />
    <glyph glyph-name="Zcaron" unicode="&#x17d;" horiz-adv-x="1257" 
d="M146 0v204l754 962v-86l-754 2v216h982v-202l-708 -908l-6 30l714 -2v-216h-982zM663 1442l-356 305l139 110l258 -260h-83l260 260l139 -110z" />
    <glyph glyph-name="zcaron" unicode="&#x17e;" horiz-adv-x="990" 
d="M114 0v192l504 588h-504v190h764v-190l-488 -588h488v-192h-764zM503 1116l-356 305l139 110l258 -260h-83l260 260l139 -110z" />
    <glyph glyph-name="florin" unicode="&#x192;" horiz-adv-x="726" 
d="M21 814l11 156h560l-10 -156h-561zM-152 -429l58 182q25 -8 51 -13.5t52 -5.5q28 0 54 10.5t43.5 36.5t21.5 70l86 1237q7 105 52.5 171t116 97.5t148.5 31.5q48 0 100 -7t100 -17l-59 -182q-24 9 -50.5 14.5t-51.5 5.5q-28 0 -54 -10.5t-43.5 -36.5t-20.5 -71l-86 -1236
q-8 -105 -54 -171.5t-115.5 -98t-149.5 -31.5q-47 0 -99 7t-100 17z" />
    <glyph glyph-name="uni0218" unicode="&#x218;" horiz-adv-x="1275" 
d="M638 -28q-135 0 -248.5 47t-184 143t-75.5 244h232q0 -75 37 -123t99.5 -71.5t137.5 -23.5q72 0 128.5 19t89 54.5t32.5 84.5q0 65 -39.5 102t-126.5 68l-256 102q-150 59 -230 137t-80 215q0 158 125 256t349 98q218 0 337 -101.5t135 -282.5h-232q-13 77 -70 123.5
t-170 46.5q-100 0 -158 -41.5t-58 -104.5q0 -54 36.5 -85.5t113.5 -60.5l284 -110q144 -56 221 -141t77 -213q0 -117 -59 -202.5t-172 -132.5t-275 -47zM597 -449l-109 56q49 25 86 55t51 70q-38 6 -63 30t-22 62q3 40 35 66.5t77 26.5q57 0 88.5 -40t27.5 -98
q-3 -64 -48 -127.5t-123 -100.5z" />
    <glyph glyph-name="uni0219" unicode="&#x219;" horiz-adv-x="1055" 
d="M548 -28q-140 0 -240.5 38.5t-154.5 111t-55 174.5h218q3 -72 57 -105t147 -33q51 0 90.5 15t61.5 41t22 58q0 41 -29.5 64.5t-94.5 43.5l-212 76q-114 41 -175 108t-61 160q0 123 111.5 198.5t298.5 75.5q186 0 287.5 -81.5t104.5 -206.5h-222q-5 48 -46 76t-124 28
q-75 0 -117.5 -30.5t-42.5 -71.5q0 -69 118 -104l230 -86q112 -38 174 -98t62 -152q0 -77 -51.5 -145.5t-143.5 -111.5t-213 -43zM486 -448l-109 56q49 25 86 55t51 70q-38 6 -63 30t-22 62q3 40 35 66.5t77 26.5q57 0 88.5 -40t27.5 -98q-3 -64 -48 -127.5t-123 -100.5z
" />
    <glyph glyph-name="uni021A" unicode="&#x21a;" horiz-adv-x="1063" 
d="M12 1094v204h1040v-204h-455l53 54v-1148h-236v1148l53 -54h-455zM428 -440l-109 56q49 25 86 55t51 70q-38 6 -63 30t-22 62q3 40 35 66.5t77 26.5q57 0 88.5 -40t27.5 -98q-3 -64 -48 -127.5t-123 -100.5z" />
    <glyph glyph-name="uni021B" unicode="&#x21b;" horiz-adv-x="789" 
d="M514 -28q-86 0 -157.5 32t-114 98t-42.5 168v958h236v-950q0 -120 114 -120q35 0 70 8t80 24l34 -166q-56 -22 -109 -37t-111 -15zM64 814v156h636v-156h-636zM400 -443l-109 56q49 25 86 55t51 70q-38 6 -63 30t-22 62q3 40 35 66.5t77 26.5q57 0 88.5 -40t27.5 -98
q-3 -64 -48 -127.5t-123 -100.5z" />
    <glyph glyph-name="uni0237" unicode="&#x237;" horiz-adv-x="670" 
d="M128 -502q-78 0 -144.5 17t-135.5 45l4 204q51 -25 107.5 -42.5t110.5 -17.5q73 0 111.5 42t38.5 142v1086h236v-1090q0 -208 -86.5 -297t-241.5 -89z" />
    <glyph glyph-name="apostrophe" unicode="&#x2bc;" horiz-adv-x="473" 
d="M246 768l-174 88q66 33 117 76t67 98q-55 11 -94.5 46t-39.5 92q0 60 46 101t116 41q89 0 139.5 -62t50.5 -147q0 -97 -61 -188.5t-167 -144.5z" />
    <glyph glyph-name="circumflex" unicode="&#x2c6;" horiz-adv-x="901" 
d="M233 1109l-139 110l356 305l357 -305l-139 -110l-260 234h83z" />
    <glyph glyph-name="caron" unicode="&#x2c7;" horiz-adv-x="901" 
d="M450 1116l-356 305l139 110l258 -260h-83l260 260l139 -110z" />
    <glyph glyph-name="breve" unicode="&#x2d8;" horiz-adv-x="820" 
d="M410 1161q-147 0 -231.5 83t-84.5 229h186q0 -77 34.5 -117t95.5 -40q62 0 96.5 40t34.5 117h185q0 -146 -84 -229t-232 -83z" />
    <glyph glyph-name="dotaccent" unicode="&#x2d9;" horiz-adv-x="506" 
d="M95.0947 1306.4q0 66.7178 45.1328 111.85q45.1318 45.1328 115.774 45.1328q70.6416 0 117.736 -45.1328q47.0947 -45.1318 47.0947 -111.85q0 -65.7363 -47.0947 -109.397q-47.0947 -43.6602 -117.736 -43.6602q-70.6426 0 -115.774 44.1514
q-45.1328 44.1514 -45.1328 108.906z" />
    <glyph glyph-name="ring" unicode="&#x2da;" horiz-adv-x="664" 
d="M332 1303q-65 0 -119.5 32t-86.5 86.5t-32 119.5t32 119t86 86.5t120 32.5q65 0 119 -32.5t86.5 -86.5t32.5 -119t-32.5 -119t-86.5 -86.5t-119 -32.5zM332 1461q34 0 57 23t23 57t-23 57.5t-57 23.5t-57 -23.5t-23 -57.5t23 -57t57 -23z" />
    <glyph glyph-name="ogonek" unicode="&#x2db;" horiz-adv-x="700" 
d="M606 -366q-65 -35 -132.5 -53t-132.5 -18q-107 0 -177 48t-70 137q0 72 51.5 140.5t151.5 109.5l180 -39q-103 -36 -163.5 -77.5t-60.5 -92.5q0 -39 33 -54.5t73 -15.5q43 0 87.5 14t104.5 46z" />
    <glyph glyph-name="tilde" unicode="&#x2dc;" horiz-adv-x="880" 
d="M188 1128l-94 57q24 121 80.5 188.5t133.5 67.5q29 0 60.5 -11t85.5 -39q51 -26 76.5 -37t49.5 -11q29 0 57 23.5t49 74.5l100 -66q-14 -72 -45.5 -127.5t-72.5 -87.5t-82 -32q-36 0 -71.5 14t-92.5 42q-47 26 -70 35t-44 9q-32 0 -61.5 -20.5t-58.5 -79.5z" />
    <glyph glyph-name="hungarumlaut" unicode="&#x2dd;" horiz-adv-x="661" 
d="M485 1108l-118 21l35 339l165 -39zM215 1123l-121 17l12 342l168 -28z" />
    <glyph glyph-name="gravecomb" unicode="&#x300;" horiz-adv-x="0" 
d="M512 1117l-418 337l157 128l374 -373z" />
    <glyph glyph-name="acutecomb" unicode="&#x301;" horiz-adv-x="0" 
d="M207 1117l-113 92l374 373l158 -128z" />
    <glyph glyph-name="uni0302" unicode="&#x302;" horiz-adv-x="0" 
d="M233 1109l-139 110l356 305l357 -305l-139 -110l-260 234h83z" />
    <glyph glyph-name="tildecomb" unicode="&#x303;" horiz-adv-x="0" 
d="M140 1128l-94 57q24 121 80.5 188.5t133.5 67.5q29 0 60.5 -11t85.5 -39q51 -26 76.5 -37t49.5 -11q29 0 57 23.5t49 74.5l100 -66q-14 -72 -45.5 -127.5t-72.5 -87.5t-82 -32q-36 0 -71.5 14t-92.5 42q-47 26 -70 35t-44 9q-32 0 -61.5 -20.5t-58.5 -79.5z" />
    <glyph glyph-name="uni0304" unicode="&#x304;" horiz-adv-x="0" 
d="M260 1361h691v-193h-691v193z" />
    <glyph glyph-name="uni0306" unicode="&#x306;" horiz-adv-x="0" 
d="M410 1161q-147 0 -231.5 83t-84.5 229h186q0 -77 34.5 -117t95.5 -40q62 0 96.5 40t34.5 117h185q0 -146 -84 -229t-232 -83z" />
    <glyph glyph-name="uni0307" unicode="&#x307;" horiz-adv-x="0" 
d="M95.0947 1306.4q0 66.7178 45.1328 111.85q45.1318 45.1328 115.774 45.1328q70.6416 0 117.736 -45.1328q47.0947 -45.1318 47.0947 -111.85q0 -65.7363 -47.0947 -109.397q-47.0947 -43.6602 -117.736 -43.6602q-70.6426 0 -115.774 44.1514
q-45.1328 44.1514 -45.1328 108.906z" />
    <glyph glyph-name="uni0308" unicode="&#x308;" horiz-adv-x="0" 
d="M618 1142q-58 0 -99 38t-41 95t41 95.5t99 38.5q62 0 102 -38.5t40 -95.5t-40 -95t-102 -38zM234 1142q-61 0 -100.5 38t-39.5 93q0 59 39.5 96.5t100.5 37.5q62 0 102 -37.5t40 -96.5q0 -55 -40 -93t-102 -38z" />
    <glyph glyph-name="uni030A" unicode="&#x30a;" horiz-adv-x="0" 
d="M332 1303q-65 0 -119.5 32t-86.5 86.5t-32 119.5t32 119t86 86.5t120 32.5q65 0 119 -32.5t86.5 -86.5t32.5 -119t-32.5 -119t-86.5 -86.5t-119 -32.5zM332 1461q34 0 57 23t23 57t-23 57.5t-57 23.5t-57 -23.5t-23 -57.5t23 -57t57 -23z" />
    <glyph glyph-name="uni030B" unicode="&#x30b;" horiz-adv-x="0" 
d="M485 1108l-118 21l35 339l165 -39zM215 1123l-121 17l12 342l168 -28z" />
    <glyph glyph-name="uni030C" unicode="&#x30c;" horiz-adv-x="0" 
d="M450 1116l-356 305l139 110l258 -260h-83l260 260l139 -110z" />
    <glyph glyph-name="uni0312" unicode="&#x312;" horiz-adv-x="0" 
d="M266 1400l109 -56q-49 -25 -86 -55t-51 -70q38 -6 63 -30t22 -62q-3 -40 -35 -66.5t-77 -26.5q-57 0 -88.5 40t-27.5 98q3 64 48 127.5t123 100.5z" />
    <glyph glyph-name="uni0326" unicode="&#x326;" horiz-adv-x="0" 
d="M203 -449l-109 56q49 25 86 55t51 70q-38 6 -63 30t-22 62q3 40 35 66.5t77 26.5q57 0 88.5 -40t27.5 -98q-3 -64 -48 -127.5t-123 -100.5z" />
    <glyph glyph-name="uni0327" unicode="&#x327;" horiz-adv-x="0" 
d="M94 -367l33 83q68 -32 120.5 -36.5t84 13t34.5 49.5q3 28 -19.5 49.5t-63 38.5t-96.5 29l78 220l104 -15l-71 -199l-31 60q97 -15 157 -45t86.5 -69t23.5 -83q-4 -58 -49.5 -93.5t-113.5 -47.5t-141.5 -1t-135.5 47z" />
    <glyph glyph-name="uni0328" unicode="&#x328;" horiz-adv-x="0" 
d="M606 -366q-65 -35 -132.5 -53t-132.5 -18q-107 0 -177 48t-70 137q0 72 51.5 140.5t151.5 109.5l180 -39q-103 -36 -163.5 -77.5t-60.5 -92.5q0 -39 33 -54.5t73 -15.5q43 0 87.5 14t104.5 46z" />
    <glyph glyph-name="uni0394" unicode="&#x394;" horiz-adv-x="1251" 
d="M44 0l442 1298h296l424 -1298h-248l-328 1016l-336 -1016h-250zM176 0v207h871v-207h-871z" />
    <glyph glyph-name="uni03A9" unicode="&#x3a9;" horiz-adv-x="1365" 
d="M582 46q-92 0 -179.5 38t-157 113.5t-110.5 188.5t-41 264q0 228 75 377.5t207.5 223t305.5 73.5q174 0 307 -75.5t208 -225.5t75 -373q0 -153 -41 -266.5t-111 -188.5t-157.5 -112t-180.5 -37v108q56 0 112.5 60.5t95 172t38.5 265.5q0 218 -93.5 339t-252.5 121
q-156 0 -250 -121.5t-94 -340.5q0 -153 38.5 -264t95 -171.5t110.5 -60.5v-108zM94 -1v155h488v-155h-488zM782 -1v155h487v-155h-487z" />
    <glyph glyph-name="uni03BC" unicode="&#x3bc;" horiz-adv-x="1254" 
d="M832 974h236v-974h-236v974zM166 974h236v-596q0 -95 47 -142.5t129 -47.5q70 0 127.5 36.5t92 108t34.5 177.5h64q0 -178 -46 -295t-127 -175t-187 -58q-104 0 -188 37t-133 119t-49 216v620zM166 -398v1372h236v-1372h-236z" />
    <glyph glyph-name="pi" unicode="&#x3c0;" horiz-adv-x="1257" 
d="M1096 -7q-112 0 -190 50.5t-118 144t-40 222.5v562h236v-562q0 -108 51 -156.5t124 -48.5zM269 0v970h236v-970h-236zM44 766v207h1183v-207h-1183z" />
    <glyph glyph-name="Wgrave" unicode="&#x1e80;" horiz-adv-x="1893" 
d="M20 1298h264l314 -1090h-60l310 1004h160l322 -988h-54l330 1074h266l-446 -1298h-248l-254 766h22l-254 -766h-248zM1094 1451l-418 337l157 128l374 -373z" />
    <glyph glyph-name="wgrave" unicode="&#x1e81;" horiz-adv-x="1516" 
d="M24 970h246l210 -736h-24l198 684h214l198 -686h-24l210 738h236l-320 -970h-232l-198 644h36l-194 -644h-234zM908 1117l-418 337l157 128l374 -373z" />
    <glyph glyph-name="Wacute" unicode="&#x1e82;" horiz-adv-x="1893" 
d="M20 1298h264l314 -1090h-60l310 1004h160l322 -988h-54l330 1074h266l-446 -1298h-248l-254 766h22l-254 -766h-248zM878 1448l-113 92l374 373l158 -128z" />
    <glyph glyph-name="wacute" unicode="&#x1e83;" horiz-adv-x="1516" 
d="M24 970h246l210 -736h-24l198 684h214l198 -686h-24l210 738h236l-320 -970h-232l-198 644h36l-194 -644h-234zM693 1114l-113 92l374 373l158 -128z" />
    <glyph glyph-name="Wdieresis" unicode="&#x1e84;" horiz-adv-x="1893" 
d="M20 1298h264l314 -1090h-60l310 1004h160l322 -988h-54l330 1074h266l-446 -1298h-248l-254 766h22l-254 -766h-248zM1134 1476q-58 0 -99 38t-41 95t41 95.5t99 38.5q62 0 102 -38.5t40 -95.5t-40 -95t-102 -38zM750 1476q-61 0 -100.5 38t-39.5 93q0 59 39.5 96.5
t100.5 37.5q62 0 102 -37.5t40 -96.5q0 -55 -40 -93t-102 -38z" />
    <glyph glyph-name="wdieresis" unicode="&#x1e85;" horiz-adv-x="1516" 
d="M24 970h246l210 -736h-24l198 684h214l198 -686h-24l210 738h236l-320 -970h-232l-198 644h36l-194 -644h-234zM948 1142q-58 0 -99 38t-41 95t41 95.5t99 38.5q62 0 102 -38.5t40 -95.5t-40 -95t-102 -38zM564 1142q-61 0 -100.5 38t-39.5 93q0 59 39.5 96.5t100.5 37.5
q62 0 102 -37.5t40 -96.5q0 -55 -40 -93t-102 -38z" />
    <glyph glyph-name="uni1E9E" unicode="&#x1e9e;" horiz-adv-x="1297" 
d="M1047 1076q0 -73 -26 -122t-59.5 -84.5t-59 -65.5t-25.5 -64q0 -38 32.5 -67t80.5 -59t95.5 -69t80 -95t32.5 -139q0 -104 -54.5 -179.5t-141 -116.5t-184.5 -41q-57 0 -126 15t-126 43l2 188q60 -40 112.5 -58.5t104.5 -18.5q55 0 89 19t49 51t15 72q0 64 -30 108.5
t-73.5 78.5t-87 66t-73 71t-29.5 93t28 92.5t65 73t65 74.5t28 97q0 74 -55.5 115.5t-145.5 41.5q-114 0 -159.5 -69t-45.5 -220v-907h-239v912q0 156 54.5 260.5t156 157t244.5 52.5q125 0 216 -38t140.5 -107t49.5 -161z" />
    <glyph glyph-name="Ygrave" unicode="&#x1ef2;" horiz-adv-x="1173" 
d="M14 1298h280l310 -558h-46l322 558h278l-462 -762v-536h-236v536zM738 1443l-418 337l157 128l374 -373z" />
    <glyph glyph-name="ygrave" unicode="&#x1ef3;" horiz-adv-x="1007" 
d="M38 970h268l258 -764h-42l222 764h240l-372 -1146q-57 -172 -140.5 -249t-203.5 -77q-69 0 -134.5 15.5t-133.5 48.5v208q55 -34 106.5 -50t103.5 -16q47 0 82.5 25.5t61.5 71t44 105.5l30 94zM655 1117l-418 337l157 128l374 -373z" />
    <glyph glyph-name="endash" unicode="&#x2013;" horiz-adv-x="1050" 
d="M110 500v206h830v-206h-830z" />
    <glyph glyph-name="emdash" unicode="&#x2014;" horiz-adv-x="1536" 
d="M110 500v206h1318v-206h-1318z" />
    <glyph glyph-name="quoteleft" unicode="&#x2018;" horiz-adv-x="542" 
d="M262 758q-57 0 -100 30t-66.5 79t-23.5 107q0 98 66 187t172 143l164 -92q-66 -31 -116 -74t-70 -100q57 -8 96.5 -42.5t39.5 -91.5q0 -60 -45.5 -103t-116.5 -43z" />
    <glyph glyph-name="quoteright" unicode="&#x2019;" horiz-adv-x="542" 
d="M222 758l-164 92q66 32 117 75t69 99q-59 9 -97.5 44.5t-38.5 91.5q0 63 47.5 103.5t116.5 40.5q59 0 100.5 -30t63.5 -79t22 -107q0 -99 -65.5 -186.5t-170.5 -143.5z" />
    <glyph glyph-name="quotesinglbase" unicode="&#x201a;" horiz-adv-x="558" 
d="M246 -272l-174 88q66 33 117 76t67 98q-55 11 -94.5 46t-39.5 92q0 60 46 101t116 41q89 0 139.5 -62t50.5 -147q0 -97 -61 -188.5t-167 -144.5z" />
    <glyph glyph-name="quotedblleft" unicode="&#x201c;" horiz-adv-x="982" 
d="M686 758q-57 0 -100 30t-66.5 79t-23.5 107q0 98 66 187t172 143l164 -92q-66 -31 -116 -74t-70 -100q57 -8 96.5 -42.5t39.5 -91.5q0 -60 -45.5 -103t-116.5 -43zM262 758q-57 0 -100 30t-66.5 79t-23.5 107q0 98 66 187t172 143l164 -92q-66 -31 -116 -74t-70 -100
q57 -8 96.5 -42.5t39.5 -91.5q0 -60 -45.5 -103t-116.5 -43z" />
    <glyph glyph-name="quotedblright" unicode="&#x201d;" horiz-adv-x="970" 
d="M650 758l-164 92q66 32 117 75t69 99q-59 9 -97.5 44.5t-38.5 91.5q0 63 47.5 103.5t116.5 40.5q59 0 100.5 -30t63.5 -79t22 -107q0 -99 -65.5 -186.5t-170.5 -143.5zM236 758l-164 92q66 32 117 75t69 99q-59 9 -97.5 44.5t-38.5 91.5q0 63 47.5 103.5t116.5 40.5
q59 0 100.5 -30t63.5 -79t22 -107q0 -99 -65.5 -186.5t-170.5 -143.5z" />
    <glyph glyph-name="quotedblbase" unicode="&#x201e;" horiz-adv-x="1032" 
d="M720 -272l-174 88q66 33 117 76t67 98q-55 11 -94.5 46t-39.5 92q0 60 46 101t116 41q89 0 139.5 -62t50.5 -147q0 -97 -61 -188.5t-167 -144.5zM246 -272l-174 88q66 33 117 76t67 98q-55 11 -94.5 46t-39.5 92q0 60 46 101t116 41q89 0 139.5 -62t50.5 -147
q0 -97 -61 -188.5t-167 -144.5z" />
    <glyph glyph-name="dagger" unicode="&#x2020;" horiz-adv-x="1047" 
d="M408 -252l-27 1550h285l-30 -1550h-228zM91 770v163l432 16l433 -16v-163l-433 -18z" />
    <glyph glyph-name="daggerdbl" unicode="&#x2021;" horiz-adv-x="1047" 
d="M408 -252l-27 1550h285l-30 -1550h-228zM91 770v163l432 16l433 -16v-163l-433 -18zM91 408v162l432 17l433 -17v-162l-433 -19z" />
    <glyph glyph-name="bullet" unicode="&#x2022;" horiz-adv-x="649" 
d="M52.501 630.803q0 123.959 83.8555 207.814q83.8545 83.8555 215.106 83.8555q131.251 0 218.752 -83.8555t87.501 -207.814q0 -122.137 -87.501 -203.258t-218.752 -81.1211q-131.252 0 -215.106 82.0322q-83.8555 82.0322 -83.8555 202.347z" />
    <glyph glyph-name="ellipsis" unicode="&#x2026;" horiz-adv-x="1318" 
d="M48 138q0 68 46 114t118 46t120 -46t48 -114q0 -67 -48 -111.5t-120 -44.5t-118 45t-46 111zM502 138q0 68 46 114t118 46t120 -46t48 -114q0 -67 -48 -111.5t-120 -44.5t-118 45t-46 111zM936 138q0 68 46 114t118 46t120 -46t48 -114q0 -67 -48 -111.5t-120 -44.5
t-118 45t-46 111z" />
    <glyph glyph-name="perthousand" unicode="&#x2030;" horiz-adv-x="2501" 
d="M419 572q-144 0 -234.5 100.5t-90.5 306.5q0 207 90.5 307.5t234.5 100.5q143 0 233.5 -100.5t90.5 -307.5q0 -206 -90.5 -306.5t-233.5 -100.5zM419 702q84 0 130.5 71.5t46.5 205.5q0 135 -46.5 207t-130.5 72q-85 0 -132 -72t-47 -207q0 -134 47 -205.5t132 -71.5z
M1347 -28q-144 0 -234.5 100.5t-90.5 306.5q0 207 90.5 307.5t234.5 100.5q143 0 233.5 -100.5t90.5 -307.5q0 -206 -90.5 -306.5t-233.5 -100.5zM1347 102q84 0 130.5 71.5t46.5 205.5q0 135 -46.5 207t-130.5 72q-85 0 -132 -72t-47 -207q0 -134 47 -205.5t132 -71.5z
M2084 -28q-144 0 -234.5 100.5t-90.5 306.5q0 207 90.5 307.5t234.5 100.5q143 0 233.5 -100.5t90.5 -307.5q0 -206 -90.5 -306.5t-233.5 -100.5zM2084 102q84 0 130.5 71.5t46.5 205.5q0 135 -46.5 207t-130.5 72q-85 0 -132 -72t-47 -207q0 -134 47 -205.5t132 -71.5z
M306.499 -24.0254l978.003 1402.76h185.311l-981.065 -1402.76h-182.248z" />
    <glyph glyph-name="guilsinglleft" unicode="&#x2039;" horiz-adv-x="761" 
d="M315 509l352 342l-159 120l-414 -431l414 -432l159 120l-352 343v-62z" />
    <glyph glyph-name="guilsinglright" unicode="&#x203a;" horiz-adv-x="761" 
d="M253 108l-159 120l351 343v-62l-351 342l159 120l414 -431z" />
    <glyph glyph-name="fraction" unicode="&#x2044;" horiz-adv-x="569" 
d="M-291.501 -24.0254l978.003 1402.76h185.311l-981.065 -1402.76h-182.248z" />
    <glyph glyph-name="uni2070" unicode="&#x2070;" horiz-adv-x="861" 
d="M431.25 479.5q-100 0 -175.938 46.25t-118.75 140t-42.8125 236.25q0 143.125 42.8125 236.875t118.75 139.688t175.938 45.9375q98.75 0 174.688 -45.9375t118.75 -139.688t42.8125 -236.875q0 -142.5 -42.8125 -236.25t-118.75 -140t-174.688 -46.25zM431.25 614.5
q87.5 0 135.625 74.0625t48.125 213.438t-48.125 214.062t-135.625 74.6875q-88.125 0 -136.562 -74.6875t-48.4375 -214.062t48.4375 -213.438t136.562 -74.0625z" />
    <glyph glyph-name="uni2074" unicode="&#x2074;" horiz-adv-x="746" 
d="M444.512 1312.37h137.351v-495.187h136.146v-121.688h-136.146v-173.496h-140.966v173.496h-396.391v107.23zM448.126 1101.53l-234.942 -298.799h234.942v298.799z" />
    <glyph glyph-name="uni2075" unicode="&#x2075;" horiz-adv-x="779" 
d="M403.836 499.133q-84.3389 0 -148.797 29.2168q-64.459 29.2168 -101.508 85.2422q-37.0488 56.0244 -38.8555 136.146h144.58q0 -60.2422 41.5664 -90.3633t103.014 -30.1211q65.6631 0 107.531 42.4707t41.8682 104.52q0 120.483 -161.448 120.483h-238.557
l36.1445 401.21h468.681v-130.122h-354.222l27.7119 40.9639l-22.8916 -232.533l-12.0488 13.2539q28.916 6.62598 68.6758 9.93945t68.6758 3.31348q121.085 0 193.074 -58.7354q71.9883 -58.7363 71.9883 -167.773q0 -77.7119 -36.7471 -140.664
q-36.7471 -62.9531 -103.013 -99.7002q-66.2666 -36.7471 -155.424 -36.7471z" />
    <glyph glyph-name="uni2076" unicode="&#x2076;" horiz-adv-x="808" 
d="M425.957 509.133q-98.1943 0 -172.895 51.2051q-74.6992 51.2051 -116.567 140.062t-41.8682 202.714q0 134.339 42.1699 228.315q42.1689 93.9775 118.374 143.074q76.2061 49.0967 178.015 49.0967q77.7119 0 137.352 -28.6143q59.6387 -28.6152 93.9766 -80.4229
t37.3496 -121.086h-151.809q-6.62695 46.9883 -33.7354 74.0977q-27.1094 27.1084 -78.3145 27.1084q-92.7725 0 -146.989 -81.627q-54.2178 -81.6279 -54.2178 -221.991q0 -18.0723 0.90332 -39.1572q0.90332 -21.084 3.91602 -40.3613q9.63867 74.0967 42.4697 116.267
q32.832 42.1689 79.2178 59.9404q46.3867 17.7705 97.5918 17.7705q73.4951 0 129.52 -31.9277q56.0254 -31.9277 87.9531 -87.9531q31.9277 -56.0244 31.9277 -128.314q0 -74.0977 -35.8438 -130.122t-100.001 -87.0488t-148.495 -31.0244zM425.957 639.254
q56.627 0 96.9883 34.0371q40.3623 34.0361 40.3623 90.0615q0 58.4346 -40.3623 91.8682q-40.3613 33.4346 -96.9883 33.4346q-37.3506 0 -67.7725 -15.6631t-48.7959 -43.9766q-18.373 -28.3135 -18.373 -65.6631q0 -56.0254 39.458 -90.0615
q39.458 -34.0371 95.4834 -34.0371z" />
    <glyph glyph-name="uni2077" unicode="&#x2077;" horiz-adv-x="633" 
d="M72.0127 516l357.836 644.586h-381.933v137.352h549.404v-136.146l-333.739 -645.791h-191.568z" />
    <glyph glyph-name="uni2078" unicode="&#x2078;" horiz-adv-x="857" 
d="M428.161 509.133q-100.604 0 -174.7 29.8193q-74.0977 29.8193 -114.761 81.3262t-40.6631 116.567q0 55.4229 29.5186 94.5801q29.5186 39.1562 80.7236 60.2412t115.062 21.085q25.3018 0 46.9883 -4.2168q21.6875 -4.2168 50.6035 -11.4463v-34.9404
q-51.2061 0 -90.9648 -15.0605q-39.7598 -15.0605 -62.3506 -40.3613q-22.5908 -25.3018 -22.5908 -55.4229q0 -34.9404 24.6992 -59.9404t66.2656 -38.5547q41.5674 -13.5547 92.1699 -13.5547q93.9775 0 139.158 24.3984q45.1816 24.3975 45.1816 62.3496
q0 30.1211 -21.9883 51.5068t-61.1455 36.4463l-222.895 85.543q-40.3613 15.6631 -82.2295 43.375q-41.8682 27.7109 -70.7842 69.2773t-28.916 98.1943q0 65.0605 35.8438 112.953q35.8438 47.8916 103.616 74.0967q67.7715 26.2051 164.158 26.2051
q85.5439 0 154.219 -28.916q68.6758 -28.916 109.038 -79.5186q40.3613 -50.6025 40.3613 -115.664q0 -45.1816 -24.6992 -83.7363t-71.6875 -62.3496q-46.9883 -23.7959 -113.254 -23.7959q-22.8926 0 -42.1699 3.91602t-44.5781 11.7471v40.9639
q39.7598 0 73.7959 12.9521t54.8203 36.1455q20.7832 23.1934 20.7832 54.5186q0 31.9277 -19.8799 55.4229q-19.8799 23.4941 -55.1211 36.4453q-35.2412 12.9521 -81.6279 12.9521q-43.9766 0 -79.5186 -11.7471q-35.543 -11.7471 -56.3262 -32.2295
q-20.7832 -20.4814 -20.7832 -46.3857q0 -29.5186 20.4824 -48.4941q20.4814 -18.9766 59.0361 -34.6396l230.124 -89.1572q86.1455 -33.1328 132.23 -76.8086q46.084 -43.6748 46.084 -121.989q0 -65.0615 -38.8555 -115.664t-112.953 -79.5186t-179.521 -28.916z" />
    <glyph glyph-name="uni2079" unicode="&#x2079;" horiz-adv-x="814" 
d="M399.836 509.133q-80.7246 0 -145.183 31.626q-64.459 31.627 -102.411 87.3506t-37.9521 129.219h148.194q2.41016 -54.2178 39.459 -86.1455q37.0479 -31.9287 93.0732 -31.9287q65.6631 0 106.025 37.6514q40.3613 37.6514 58.7354 105.725t18.374 159.038
q0 18.0723 -0.904297 35.2412q-0.90332 17.1689 -3.91504 35.8438q-11.4463 -66.2656 -43.374 -106.929q-31.9287 -40.6631 -77.4111 -59.0371t-98.4951 -18.374q-72.8926 0 -128.616 31.627q-55.7227 31.627 -87.6514 87.3506q-31.9277 55.7236 -31.9277 128.014
q0 74.6992 35.8438 130.725q35.8438 56.0244 99.3984 86.748q63.5557 30.7227 146.688 30.7227q69.8809 0 130.424 -28.3135t105.724 -80.4219q45.1816 -52.1094 70.7842 -124.399t25.6025 -160.846q0 -128.314 -35.542 -222.895q-35.543 -94.5791 -106.628 -146.086
q-71.085 -51.5059 -178.315 -51.5059zM388.992 945.282q36.7471 0 67.7715 15.6631q31.0254 15.6621 49.7002 43.374q18.6748 27.7109 18.6748 63.8564q0 57.832 -40.6631 91.5664q-40.6631 33.7363 -96.6885 33.7363q-56.0244 0 -95.4824 -33.7363
q-39.459 -33.7344 -39.459 -91.5664t39.7598 -90.3633q39.7598 -32.5303 96.3867 -32.5303z" />
    <glyph glyph-name="uni2080" unicode="&#x2080;" horiz-adv-x="861" 
d="M431 -28q-150 0 -243.5 104.5t-93.5 318.5t93.5 318t243.5 104q148 0 242.5 -104t94.5 -318t-94.5 -318.5t-242.5 -104.5zM431 107q87 0 136 74t49 214t-49 214t-136 74q-88 0 -136.5 -74t-48.5 -214t48.5 -214t136.5 -74z" />
    <glyph glyph-name="uni2081" unicode="&#x2081;" horiz-adv-x="537" 
d="M243 787h107v-787h-142v617q-32 -14 -62.5 -22t-61.5 -9v137q41 4 80 19t79 45z" />
    <glyph glyph-name="uni2082" unicode="&#x2082;" horiz-adv-x="819" 
d="M120 0v134q0 98 45 153.5t134 89.5l160 62q52 20 77.5 51t25.5 76q0 46 -33 77t-94 31q-59 0 -98.5 -29.5t-45.5 -85.5h-157q2 80 41.5 133t106.5 79.5t151 26.5q79 0 142.5 -30t101 -83t37.5 -125q0 -90 -49.5 -148.5t-151.5 -98.5l-161 -62q-47 -18 -68.5 -40
t-21.5 -58v-23h447v-130h-589z" />
    <glyph glyph-name="uni2083" unicode="&#x2083;" horiz-adv-x="825" 
d="M413 -28q-83 0 -156.5 30t-120 88t-46.5 144h149q4 -61 51.5 -96.5t122.5 -35.5q73 0 115 34t42 85t-38.5 79.5t-119.5 28.5h-104v112h88q69 0 108 30t39 80q0 46 -33.5 76t-101.5 30q-55 0 -98 -22t-55 -78h-149q13 120 94.5 174.5t201.5 54.5q128 0 211 -60.5
t83 -157.5q0 -60 -33 -104t-96 -66q71 -24 113.5 -71.5t42.5 -118.5q0 -104 -85 -170t-225 -66z" />
    <glyph glyph-name="uni2084" unicode="&#x2084;" horiz-adv-x="746" 
d="M444 790h137v-495h136v-122h-136v-173h-140v173h-397v108zM448 579l-236 -298h236v298z" />
    <glyph glyph-name="uni2085" unicode="&#x2085;" horiz-adv-x="779" 
d="M404 -28q-85 0 -149.5 29.5t-101.5 85.5t-39 135h145q0 -60 41.5 -90t103.5 -30q66 0 107 42.5t41 104.5q0 120 -160 120h-239l36 401h469v-130h-354l27 41l-22 -232l-13 13q29 6 69 9.5t69 3.5q121 0 193 -58.5t72 -167.5q0 -77 -37 -140t-103 -100t-155 -37z" />
    <glyph glyph-name="uni2086" unicode="&#x2086;" horiz-adv-x="808" 
d="M425 -28q-97 0 -172 51t-117 140t-42 203q0 201 93 310.5t246 109.5q116 0 190 -63t78 -167h-151q-7 47 -34 74t-78 27q-93 0 -147 -81.5t-54 -221.5q0 -18 1 -39.5t3 -40.5q10 74 42.5 116.5t79.5 60t98 17.5q110 0 179.5 -70t69.5 -178q0 -111 -79 -179.5t-206 -68.5z
M425 102q57 0 97.5 34t40.5 90q0 59 -40.5 92t-97.5 33q-55 0 -94.5 -34.5t-39.5 -90.5t39.5 -90t94.5 -34z" />
    <glyph glyph-name="uni2087" unicode="&#x2087;" horiz-adv-x="633" 
d="M72 0l358 644h-382v138h550v-136l-335 -646h-191z" />
    <glyph glyph-name="uni2088" unicode="&#x2088;" horiz-adv-x="857" 
d="M429 -28q-151 0 -241 65t-90 163q0 83 65 129.5t160 46.5q26 0 47.5 -4.5t50.5 -12.5v-34q-77 0 -126.5 -33t-49.5 -78q0 -53 53.5 -82.5t130.5 -29.5q94 0 139 24.5t45 62.5q0 30 -22 51t-61 37l-224 85q-40 16 -82 43.5t-70.5 69t-28.5 98.5q0 97 79.5 155t224.5 58
q85 0 154 -29t109 -79t40 -116q0 -67 -55 -118.5t-154 -51.5q-23 0 -42.5 4t-44.5 12v41q59 0 104 28.5t45 74.5q0 48 -43.5 76.5t-112.5 28.5q-67 0 -112 -25.5t-45 -64.5q0 -30 20 -49t59 -34l230 -89q86 -34 132.5 -77.5t46.5 -121.5q0 -97 -86.5 -160.5t-244.5 -63.5z
" />
    <glyph glyph-name="uni2089" unicode="&#x2089;" horiz-adv-x="814" 
d="M399 -28q-80 0 -144.5 31.5t-102.5 87t-38 129.5h148q3 -55 40 -86.5t93 -31.5q99 0 141 83t42 219q0 18 -1 35t-4 36q-17 -99 -78 -141.5t-141 -42.5q-109 0 -178.5 69t-69.5 178q0 112 78.5 180t203.5 68q93 0 168 -49t119.5 -137.5t44.5 -207.5q0 -192 -80 -306
t-241 -114zM388 408q56 0 96.5 34.5t40.5 88.5q0 58 -40.5 91.5t-96.5 33.5t-96 -33.5t-40 -91.5t40 -90.5t96 -32.5z" />
    <glyph glyph-name="uni20A8" unicode="&#x20a8;" horiz-adv-x="1208" 
d="M166 1166v132h926v-132h-926zM166 844v134h926v-134h-926zM166 626h194l648 -626h-330l-512 492v134zM244 626h60q174 0 253 77.5t79 192.5q0 116 -79 193t-253 77h-60v94h60q194 0 324.5 -46t196 -128t65.5 -190q0 -115 -57.5 -206.5t-186.5 -144.5t-342 -53h-60v134z
" />
    <glyph glyph-name="Euro" unicode="&#x20ac;" horiz-adv-x="1267" 
d="M694 -28q-169 0 -295 81.5t-195.5 233.5t-69.5 365q0 220 72.5 369.5t199 226t288.5 76.5q225 0 352.5 -110t163.5 -286l-252 -46q-31 102 -98.5 165t-165.5 63q-84 0 -153.5 -50.5t-111 -152.5t-41.5 -255q0 -144 36 -248t104.5 -160t165.5 -56q124 0 194 67.5t70 172.5
h252q0 -145 -62.5 -246.5t-178 -155.5t-275.5 -54zM40 470v134h710v-134h-710zM40 690v134h710v-134h-710z" />
    <glyph glyph-name="trademark" unicode="&#x2122;" horiz-adv-x="1407" 
d="M6 1520v102h521v-102h-228l27 27v-574h-118v574l26 -27h-228zM624 1622h170l182 -397h-10l183 397h163v-649h-119v513h18l-201 -442h-78l-201 440h11v-511h-118v649z" />
    <glyph glyph-name="oneeighth" unicode="&#x215b;" horiz-adv-x="1962" 
d="M243 1387h107v-787h-142v617q-32 -15 -62.5 -22.5t-61.5 -8.5v137q41 4 80 19t79 45zM245.499 -24.0254l978.003 1402.76h185.311l-981.065 -1402.76h-182.248zM1534 -28q-151 0 -240.5 65t-89.5 163q0 83 64.5 129.5t160.5 46.5q25 0 46.5 -4t50.5 -12v-35
q-76 0 -126 -32.5t-50 -78.5q0 -52 54 -82t130 -30q94 0 139 24.5t45 62.5q0 30 -22 51.5t-61 36.5l-223 86q-40 15 -82.5 42.5t-71 69t-28.5 98.5q0 98 79.5 156t224.5 58q86 0 154.5 -29t108.5 -79.5t40 -116.5q0 -67 -55 -118t-154 -51q-23 0 -42.5 4t-44.5 11v41
q60 0 105 28.5t45 75.5q0 48 -44 76.5t-113 28.5q-66 0 -111.5 -26t-45.5 -65q0 -29 20.5 -48t59.5 -35l230 -89q86 -33 132 -77t46 -121q0 -98 -87 -161.5t-244 -63.5z" />
    <glyph glyph-name="threeeighths" unicode="&#x215c;" horiz-adv-x="2250" 
d="M413 572q-83 0 -156.5 30t-120 88.5t-46.5 143.5h149q4 -61 51.5 -96.5t122.5 -35.5q73 0 115 34t42 85t-38.5 80t-119.5 29h-104v112h88q69 0 108 29.5t39 80.5q0 45 -33.5 75.5t-101.5 30.5q-55 0 -98 -22.5t-55 -77.5h-149q13 119 94.5 174t201.5 55q128 0 211 -61
t83 -158q0 -59 -33 -103.5t-96 -65.5q71 -25 113.5 -72.5t42.5 -118.5q0 -104 -85 -170t-225 -66zM533.499 -24.0254l978.003 1402.76h185.311l-981.065 -1402.76h-182.248zM1822 -28q-151 0 -240.5 65t-89.5 163q0 83 64.5 129.5t160.5 46.5q25 0 46.5 -4t50.5 -12v-35
q-76 0 -126 -32.5t-50 -78.5q0 -52 54 -82t130 -30q94 0 139 24.5t45 62.5q0 30 -22 51.5t-61 36.5l-223 86q-40 15 -82.5 42.5t-71 69t-28.5 98.5q0 98 79.5 156t224.5 58q86 0 154.5 -29t108.5 -79.5t40 -116.5q0 -67 -55 -118t-154 -51q-23 0 -42.5 4t-44.5 11v41
q60 0 105 28.5t45 75.5q0 48 -44 76.5t-113 28.5q-66 0 -111.5 -26t-45.5 -65q0 -29 20.5 -48t59.5 -35l230 -89q86 -33 132 -77t46 -121q0 -98 -87 -161.5t-244 -63.5z" />
    <glyph glyph-name="fiveeighths" unicode="&#x215d;" horiz-adv-x="2202" 
d="M403 572q-84 0 -149 29.5t-101.5 85.5t-38.5 135h144q0 -60 41.5 -90t103.5 -30q66 0 107.5 42.5t41.5 104.5q0 121 -161 121h-238l36 401h468v-130h-354l28 41l-23 -233l-12 13q29 7 69 10t68 3q121 0 193 -58t72 -168q0 -77 -37 -140t-103 -100t-155 -37z
M486.499 -24.0254l978.003 1402.76h185.311l-981.065 -1402.76h-182.248zM1775 -28q-151 0 -240.5 65t-89.5 163q0 83 64.5 129.5t160.5 46.5q25 0 46.5 -4t50.5 -12v-35q-76 0 -126 -32.5t-50 -78.5q0 -52 54 -82t130 -30q94 0 139 24.5t45 62.5q0 30 -22 51.5t-61 36.5
l-223 86q-40 15 -82.5 42.5t-71 69t-28.5 98.5q0 98 79.5 156t224.5 58q86 0 154.5 -29t108.5 -79.5t40 -116.5q0 -67 -55 -118t-154 -51q-23 0 -42.5 4t-44.5 11v41q60 0 105 28.5t45 75.5q0 48 -44 76.5t-113 28.5q-66 0 -111.5 -26t-45.5 -65q0 -29 20.5 -48t59.5 -35
l230 -89q86 -33 132 -77t46 -121q0 -98 -87 -161.5t-244 -63.5z" />
    <glyph glyph-name="seveneighths" unicode="&#x215e;" horiz-adv-x="2057" 
d="M72 600l358 644h-382v138h550v-136l-335 -646h-191zM341.499 -24.0254l978.003 1402.76h185.311l-981.065 -1402.76h-182.248zM1630 -28q-151 0 -240.5 65t-89.5 163q0 83 64.5 129.5t160.5 46.5q25 0 46.5 -4t50.5 -12v-35q-76 0 -126 -32.5t-50 -78.5q0 -52 54 -82
t130 -30q94 0 139 24.5t45 62.5q0 30 -22 51.5t-61 36.5l-223 86q-40 15 -82.5 42.5t-71 69t-28.5 98.5q0 98 79.5 156t224.5 58q86 0 154.5 -29t108.5 -79.5t40 -116.5q0 -67 -55 -118t-154 -51q-23 0 -42.5 4t-44.5 11v41q60 0 105 28.5t45 75.5q0 48 -44 76.5t-113 28.5
q-66 0 -111.5 -26t-45.5 -65q0 -29 20.5 -48t59.5 -35l230 -89q86 -33 132 -77t46 -121q0 -98 -87 -161.5t-244 -63.5z" />
    <glyph glyph-name="partialdiff" unicode="&#x2202;" horiz-adv-x="1124" 
d="M550 -28q-121 0 -223 64.5t-163.5 181.5t-61.5 274q0 153 57.5 266.5t153.5 176.5t209 63q116 0 201 -64.5t131.5 -173.5t46.5 -244h-74q-1 92 -38.5 152t-93 89t-115.5 29q-70 0 -124 -37t-85 -104t-31 -157t31 -158t85.5 -106t125.5 -38q76 0 128.5 42t81.5 112t33 155
q5 152 -12 290t-67 264.5t-141.5 244.5t-235.5 230l198 133q131 -119 224 -247t151 -259.5t85 -260.5t27 -249q0 -162 -41.5 -286.5t-112.5 -209.5t-161.5 -129t-188.5 -44z" />
    <glyph glyph-name="emptyset" unicode="&#x2205;" 
d="M601 130q-119 0 -217 58t-156 156t-58 216q0 120 58 217.5t156 155.5t217 58t216.5 -58t155.5 -155.5t58 -217.5q0 -118 -58 -216t-155.5 -156t-216.5 -58zM601 273q79 0 143.5 39t103.5 104t39 144t-39 143.5t-103.5 103.5t-143.5 39t-144 -39t-104 -103.5t-39 -143.5
t39 -144t104 -104t144 -39zM1012 1058l86 -87l-909 -910l-87 87z" />
    <glyph glyph-name="product" unicode="&#x220f;" horiz-adv-x="1312" 
d="M186 -474v1772h939v-1772h-235v1628l59 -62h-588l60 62v-1628h-235z" />
    <glyph glyph-name="summation" unicode="&#x2211;" horiz-adv-x="1128" 
d="M571 412l-477 680v206h939v-206h-869l137 62l527 -742h-257zM571 412h257l-527 -742l-137 61h869v-205h-939v205z" />
    <glyph glyph-name="minus" unicode="&#x2212;" horiz-adv-x="1087" 
d="M36 596h1016v-206h-1016v206z" />
    <glyph glyph-name="DivisionSlash" unicode="&#x2215;" horiz-adv-x="569" 
d="M-291.501 -24.0254l978.003 1402.76h185.311l-981.065 -1402.76h-182.248z" />
    <glyph glyph-name="radical" unicode="&#x221a;" horiz-adv-x="1230" 
d="M458 1l-221 481l84 -94l-249 -88l-62 137l399 172l212 -461h-102l505 1535h196l-575 -1682h-187z" />
    <glyph glyph-name="infinity" unicode="&#x221e;" horiz-adv-x="1352" 
d="M366 191q-75 0 -149 33.5t-123.5 103t-49.5 177.5q0 109 49.5 178.5t123.5 102.5t149 33q58 0 119.5 -21t118 -71.5t98.5 -138.5h-54q43 88 99.5 138.5t119 71.5t118.5 21q76 0 150 -33t123 -102.5t49 -178.5q0 -108 -49 -177.5t-123 -103t-150 -33.5q-56 0 -118.5 21
t-118.5 71.5t-98 138.5h53q-42 -88 -99 -138.5t-118.5 -71.5t-119.5 -21zM404 346q70 0 135.5 48.5t117.5 153.5v-85q-52 106 -117.5 154t-135.5 48q-39 0 -79.5 -15.5t-68.5 -50.5t-28 -94q0 -58 28 -93.5t68.5 -50.5t79.5 -15zM947 346q39 0 80 15t68.5 50.5t27.5 93.5
q0 59 -27.5 94t-68.5 50.5t-80 15.5q-70 0 -135.5 -48t-117.5 -154v85q52 -105 117.5 -153.5t135.5 -48.5z" />
    <glyph glyph-name="integral" unicode="&#x222b;" horiz-adv-x="972" 
d="M44 -429l59 182q25 -8 51 -13.5t51 -5.5q29 0 54.5 10.5t43.5 36.5t21 70l86 1237q7 105 53 171t116 97.5t149 31.5q48 0 99.5 -7t99.5 -17l-59 -182q-23 9 -49.5 14.5t-52.5 5.5q-28 0 -53.5 -10.5t-43.5 -36.5t-21 -71l-86 -1236q-7 -105 -53 -171.5t-116 -98
t-149 -31.5q-47 0 -99 7t-101 17z" />
    <glyph glyph-name="approxequal" unicode="&#x2248;" horiz-adv-x="1139" 
d="M254 512l-120 65q35 127 93.5 197t153.5 70q40 0 87.5 -13.5t117.5 -40.5q67 -25 104.5 -37.5t65.5 -12.5q42 0 73.5 25.5t57.5 80.5l119 -75q-37 -120 -104 -181.5t-156 -61.5q-39 0 -82.5 13t-115.5 40q-30 12 -61.5 23t-59.5 18.5t-50 7.5q-39 0 -69.5 -28t-53.5 -90z
M254 118l-120 65q35 127 93.5 197t153.5 70q40 0 87.5 -13.5t117.5 -40.5q67 -25 104.5 -37.5t65.5 -12.5q42 0 73.5 25.5t57.5 80.5l119 -76q-37 -119 -104.5 -180.5t-155.5 -61.5q-39 0 -82.5 13t-115.5 39q-30 13 -61.5 24t-59.5 18.5t-50 7.5q-39 0 -69.5 -28t-53.5 -90
z" />
    <glyph glyph-name="notequal" unicode="&#x2260;" horiz-adv-x="1012" 
d="M158 396h696v-204h-696v204zM158 816h696v-204h-696v204zM274 64l318 902h152l-316 -902h-154z" />
    <glyph glyph-name="lessequal" unicode="&#x2264;" horiz-adv-x="1012" 
d="M824 286l-674 250v176l674 252l46 -190l-592 -192v84l592 -190zM146 0v178h696v-178h-696z" />
    <glyph glyph-name="greaterequal" unicode="&#x2265;" horiz-adv-x="1012" 
d="M190 286l-48 190l592 190v-84l-592 192l48 190l672 -252v-176zM170 0v178h696v-178h-696z" />
    <glyph glyph-name="lozenge" unicode="&#x25ca;" horiz-adv-x="1171" 
d="M94 649l398 649h190l396 -649l-396 -649h-190zM327 604v90l289 -488h-57l286 488v-90l-286 487h57z" />
    <glyph glyph-name="approxequal.tf" 
d="M284 512l-120 65q35 127 93.5 197t153.5 70q40 0 87.5 -13.5t117.5 -40.5q67 -25 104.5 -37.5t65.5 -12.5q42 0 73.5 25.5t57.5 80.5l119 -75q-37 -120 -104 -181.5t-156 -61.5q-39 0 -82.5 13t-115.5 40q-30 12 -61.5 23t-59.5 18.5t-50 7.5q-39 0 -69.5 -28t-53.5 -90z
M284 118l-120 65q35 127 93.5 197t153.5 70q40 0 87.5 -13.5t117.5 -40.5q67 -25 104.5 -37.5t65.5 -12.5q42 0 73.5 25.5t57.5 80.5l119 -76q-37 -119 -104.5 -180.5t-155.5 -61.5q-39 0 -82.5 13t-115.5 39q-30 13 -61.5 24t-59.5 18.5t-50 7.5q-39 0 -69.5 -28t-53.5 -90
z" />
    <glyph glyph-name="asciicircum.tf" 
d="M108 436l398 770h190l396 -770h-262l-274 590h90l-276 -590h-262z" />
    <glyph glyph-name="asciitilde.tf" 
d="M268 408l-126 68q35 129 96 204.5t160 75.5q43 0 93 -14t123 -42q72 -29 113 -40.5t71 -11.5q38 0 71 28t57 82l128 -80q-41 -127 -111 -190.5t-165 -63.5q-33 0 -81.5 13t-122.5 43q-71 29 -109 39.5t-69 10.5q-37 0 -69 -28t-59 -94z" />
    <glyph glyph-name="cent.tf" 
d="M524 -216v258h194v-258h-194zM524 940v234h194v-234h-194zM626 -28q-122 0 -226.5 63.5t-169 179t-64.5 271.5q0 165 64.5 279.5t169 173.5t226.5 59q95 0 167.5 -30.5t123.5 -82t80 -114.5t37 -127l-238 -6q-16 64 -59.5 106t-112.5 42q-57 0 -107 -31.5t-81.5 -97.5
t-31.5 -171q0 -100 29.5 -166.5t79.5 -100t111 -33.5q90 0 131 43.5t41 116.5h238q0 -103 -47 -188t-138 -135.5t-223 -50.5z" />
    <glyph glyph-name="currency.tf" 
d="M600 216q-117 0 -213 57.5t-153.5 153.5t-57.5 213t57.5 213t153.5 153.5t213 57.5t213 -57.5t152.5 -153.5t56.5 -213t-56.5 -213t-152.5 -153.5t-213 -57.5zM600 426q59 0 107.5 29t77.5 77.5t29 107.5q0 60 -29 108.5t-77.5 77t-107.5 28.5t-107.5 -28.5t-77.5 -77
t-29 -108.5q0 -59 29 -107.5t77.5 -77.5t107.5 -29zM848 788l-100 100l230 230l100 -98zM340 800l-218 218l98 100l218 -218zM860 480l218 -218l-98 -100l-218 218zM340 480l98 -100l-218 -218l-98 100z" />
    <glyph glyph-name="divide.tf" 
d="M212 444v208h776v-208h-776zM598 78q-58 0 -97 37.5t-39 92.5q0 56 39 93t97 37q60 0 100 -37t40 -93q0 -55 -40 -92.5t-100 -37.5zM598 752q-58 0 -97 36.5t-39 93.5q0 54 39 92t97 38q60 0 100 -38t40 -92q0 -57 -40 -93.5t-100 -36.5z" />
    <glyph glyph-name="dollar.tf" 
d="M610 -28q-104 0 -202 26t-175.5 78.5t-123 135t-45.5 194.5h232q0 -78 40.5 -126t113.5 -70t170 -22q84 0 139.5 22t83 59.5t27.5 82.5q0 57 -35 101t-97 65l-144 54v204l256 -90q141 -49 212.5 -130.5t71.5 -209.5q0 -94 -56.5 -179.5t-172.5 -140t-295 -54.5zM532 -202
v1676h170v-1676h-170zM592 568l-146 50q-163 56 -253.5 135.5t-90.5 216.5q0 158 134 256t386 98q219 0 339 -103.5t145 -280.5h-232q-10 77 -78.5 129.5t-177.5 52.5q-127 0 -193.5 -45t-66.5 -115q0 -52 32 -85.5t96 -56.5l106 -44v-208z" />
    <glyph glyph-name="eight.dnom" horiz-adv-x="856" 
d="M428 -28q-151 0 -240.5 65t-89.5 163q0 83 64.5 129.5t160.5 46.5q25 0 46.5 -4t50.5 -12v-35q-76 0 -126 -32.5t-50 -78.5q0 -52 54 -82t130 -30q94 0 139 24.5t45 62.5q0 30 -22 51.5t-61 36.5l-223 86q-40 15 -82.5 42.5t-71 69t-28.5 98.5q0 98 79.5 156t224.5 58
q86 0 154.5 -29t108.5 -79.5t40 -116.5q0 -67 -55 -118t-154 -51q-23 0 -42.5 4t-44.5 11v41q60 0 105 28.5t45 75.5q0 48 -44 76.5t-113 28.5q-66 0 -111.5 -26t-45.5 -65q0 -29 20.5 -48t59.5 -35l230 -89q86 -33 132 -77t46 -121q0 -98 -87 -161.5t-244 -63.5z" />
    <glyph glyph-name="eight.numr" horiz-adv-x="856" 
d="M428 572q-151 0 -240.5 65t-89.5 163q0 83 64.5 129.5t160.5 46.5q25 0 46.5 -4t50.5 -12v-35q-76 0 -126 -32.5t-50 -78.5q0 -52 54 -82t130 -30q94 0 139 24.5t45 62.5q0 30 -22 51.5t-61 36.5l-223 86q-40 15 -82.5 42.5t-71 69t-28.5 98.5q0 98 79.5 156t224.5 58
q86 0 154.5 -29t108.5 -79.5t40 -116.5q0 -67 -55 -118t-154 -51q-23 0 -42.5 4t-44.5 11v41q60 0 105 28.5t45 75.5q0 48 -44 76.5t-113 28.5q-66 0 -111.5 -26t-45.5 -65q0 -29 20.5 -48t59.5 -35l230 -89q86 -33 132 -77t46 -121q0 -98 -87 -161.5t-244 -63.5z" />
    <glyph glyph-name="eight.tf" 
d="M598 -28q-167 0 -290 49.5t-190.5 135t-67.5 193.5q0 92 49.5 157t134 100t190.5 35q42 0 78.5 -7t83.5 -19v-58q-85 0 -151 -25t-103.5 -67t-37.5 -92q0 -58 41 -99.5t110 -64t153 -22.5q156 0 231 40.5t75 103.5q0 50 -37 85.5t-101 60.5l-370 142q-67 25 -137 71
t-117.5 115.5t-47.5 163.5q0 108 59.5 187.5t172 123t272.5 43.5q142 0 256 -48t181 -132t67 -192q0 -75 -41 -139t-118.5 -103.5t-188.5 -39.5q-38 0 -70 6.5t-74 19.5v68q66 0 122.5 21.5t91 60t34.5 90.5q0 53 -33 92t-91.5 60.5t-135.5 21.5q-73 0 -132 -19.5
t-93.5 -53.5t-34.5 -77q0 -49 33 -81.5t99 -56.5l382 -148q143 -55 219.5 -127.5t76.5 -202.5q0 -108 -64.5 -192t-187.5 -132t-298 -48z" />
    <glyph glyph-name="equal.tf" 
d="M252 396h696v-204h-696v204zM252 816h696v-204h-696v204z" />
    <glyph glyph-name="Euro.tf" 
d="M682 -28q-169 0 -293 81.5t-191.5 233.5t-67.5 363q0 222 71.5 372t192.5 226t270 76q215 0 333.5 -110t148.5 -286l-252 -46q-26 102 -84.5 165t-145.5 63q-71 0 -135 -49.5t-104.5 -154t-40.5 -268.5q0 -138 30.5 -239t92.5 -156t157 -55q76 0 129.5 31t81 85t27.5 124
h252q0 -145 -59.5 -246.5t-166 -155.5t-246.5 -54zM36 470v134h658v-134h-658zM36 690v134h658v-134h-658z" />
    <glyph glyph-name="five.dnom" horiz-adv-x="778" 
d="M403 -28q-84 0 -149 29.5t-101.5 85.5t-38.5 135h144q0 -60 41.5 -90t103.5 -30q66 0 107.5 42.5t41.5 104.5q0 121 -161 121h-238l36 401h468v-130h-354l28 41l-23 -233l-12 13q29 7 69 10t68 3q121 0 193 -58t72 -168q0 -77 -37 -140t-103 -100t-155 -37z" />
    <glyph glyph-name="five.numr" horiz-adv-x="778" 
d="M403 572q-84 0 -149 29.5t-101.5 85.5t-38.5 135h144q0 -60 41.5 -90t103.5 -30q66 0 107.5 42.5t41.5 104.5q0 121 -161 121h-238l36 401h468v-130h-354l28 41l-23 -233l-12 13q29 7 69 10t68 3q121 0 193 -58t72 -168q0 -77 -37 -140t-103 -100t-155 -37z" />
    <glyph glyph-name="five.tf" 
d="M592 -28q-140 0 -247 48.5t-168.5 141.5t-64.5 226h240q0 -100 69 -150t171 -50q110 0 179 70.5t69 173.5q0 98 -67.5 149t-200.5 51h-396l60 666h778v-216h-588l46 68l-38 -386l-20 22q48 11 114 16.5t114 5.5q201 0 320.5 -97.5t119.5 -278.5q0 -129 -61 -233.5
t-171 -165.5t-258 -61z" />
    <glyph glyph-name="four.dnom" horiz-adv-x="746" 
d="M445 790h136v-495h137v-122h-137v-173h-140v173h-397v108zM447 579l-234 -298h234v298z" />
    <glyph glyph-name="four.numr" horiz-adv-x="746" 
d="M445 1390h136v-495h137v-122h-137v-173h-140v173h-397v108zM447 1179l-234 -298h234v298z" />
    <glyph glyph-name="four.tf" 
d="M704 1312h228v-884l-50 38h250v-178h-248l48 62v-350h-232v350l76 -62h-722v178zM710 1066l70 -6l-504 -650l-8 56h518l-76 -64v664z" />
    <glyph glyph-name="greater.tf" 
d="M344 56l-156 180l652 458v-100l-652 460l156 180l668 -484v-212z" />
    <glyph glyph-name="greaterequal.tf" 
d="M284 286l-48 190l592 190v-84l-592 192l48 190l672 -252v-176zM264 0v178h696v-178h-696z" />
    <glyph glyph-name="i.loclTRK" horiz-adv-x="656" 
d="M206 0v974h236v-974h-236zM173.095 1305.4q0 66.7178 45.1328 111.85q45.1318 45.1328 115.774 45.1328q70.6416 0 117.736 -45.1328q47.0947 -45.1318 47.0947 -111.85q0 -65.7363 -47.0947 -109.397q-47.0947 -43.6602 -117.736 -43.6602q-70.6426 0 -115.774 44.1514
q-45.1328 44.1514 -45.1328 108.906z" />
    <glyph glyph-name="less.tf" 
d="M854 1234l158 -180l-654 -460v100l654 -458l-158 -180l-668 482v212z" />
    <glyph glyph-name="lessequal.tf" 
d="M918 286l-674 250v176l674 252l46 -190l-592 -192v84l592 -190zM240 0v178h696v-178h-696z" />
    <glyph glyph-name="minus.tf" 
d="M86 592h1028v-206h-1028v206z" />
    <glyph glyph-name="multiply.tf" 
d="M340 90l-166 168l260 260l-260 258l166 168l260 -260l260 260l168 -168l-262 -258l262 -260l-168 -168l-260 260z" />
    <glyph glyph-name="nine.dnom" horiz-adv-x="814" 
d="M399 -28q-80 0 -144.5 31.5t-102 87.5t-37.5 129h147q3 -54 40 -86t93 -32q99 0 141 83t42 219q0 18 -1 35.5t-4 36.5q-17 -100 -78 -142t-141 -42q-109 0 -178.5 69t-69.5 177q0 113 78.5 181t203.5 68q93 0 168 -49.5t119.5 -138t44.5 -207.5q0 -192 -80 -306
t-241 -114zM388 408q57 0 97 34.5t40 88.5q0 58 -40.5 91.5t-96.5 33.5t-95.5 -33.5t-39.5 -91.5t39.5 -90.5t95.5 -32.5z" />
    <glyph glyph-name="nine.numr" horiz-adv-x="814" 
d="M399 572q-80 0 -144.5 31.5t-102 87.5t-37.5 129h147q3 -54 40 -86t93 -32q99 0 141 83t42 219q0 18 -1 35.5t-4 36.5q-17 -100 -78 -142t-141 -42q-109 0 -178.5 69t-69.5 177q0 113 78.5 181t203.5 68q93 0 168 -49.5t119.5 -138t44.5 -207.5q0 -192 -80 -306
t-241 -114zM388 1008q57 0 97 34.5t40 88.5q0 58 -40.5 91.5t-96.5 33.5t-95.5 -33.5t-39.5 -91.5t39.5 -90.5t95.5 -32.5z" />
    <glyph glyph-name="nine.tf" 
d="M576 -28q-134 0 -241.5 52.5t-170 145t-62.5 214.5h246q4 -90 65.5 -143t154.5 -53q110 0 177 62.5t97 175.5t30 264q0 30 -2 58.5t-6 59.5q-19 -110 -71 -177.5t-127.5 -98t-163.5 -30.5q-121 0 -213.5 52.5t-145.5 145t-53 212.5q0 124 59.5 217t164.5 144t242 51
q116 0 216.5 -47t176.5 -133.5t118.5 -206.5t42.5 -267q0 -213 -59.5 -370t-178 -242.5t-296.5 -85.5zM560 696q61 0 112 26t81.5 72t30.5 106q0 96 -66.5 152t-161.5 56q-93 0 -158.5 -56t-65.5 -152t66 -150t162 -54z" />
    <glyph glyph-name="notequal.tf" 
d="M252 396h696v-204h-696v204zM252 816h696v-204h-696v204zM368 64l318 902h152l-316 -902h-154z" />
    <glyph glyph-name="one.dnom" horiz-adv-x="537" 
d="M243 787h107v-787h-142v617q-32 -15 -62.5 -22.5t-61.5 -8.5v137q41 4 80 19t79 45z" />
    <glyph glyph-name="one.numr" horiz-adv-x="537" 
d="M243 1387h107v-787h-142v617q-32 -15 -62.5 -22.5t-61.5 -8.5v137q41 4 80 19t79 45z" />
    <glyph glyph-name="one.tf" 
d="M238 0v182h310l-62 -62v978l62 -44q-71 -39 -137.5 -59t-130.5 -21v226q66 7 131.5 31.5t130.5 74.5h180v-1186l-64 62h312v-182h-732z" />
    <glyph glyph-name="percent.tf" 
d="M62 0l852 1298h224l-850 -1298h-226zM922 -28q-64 0 -122.5 29t-96 95.5t-37.5 179.5t37.5 179t96 94.5t122.5 28.5q65 0 124 -28.5t96.5 -94.5t37.5 -179t-37.5 -179.5t-96.5 -95.5t-124 -29zM922 124q39 0 67.5 33t28.5 119t-28.5 120t-67.5 34q-42 0 -70 -34t-28 -120
t28 -119t70 -33zM276 718q-64 0 -122.5 29t-96 95.5t-37.5 179.5q0 112 37.5 178.5t96 95t122.5 28.5q65 0 124 -28.5t96.5 -95t37.5 -178.5q0 -113 -37.5 -179.5t-96.5 -95.5t-124 -29zM276 868q40 0 69 34t29 120t-29 119t-69 33t-68 -33t-28 -119t28 -120t68 -34z" />
    <glyph glyph-name="plus.tf" 
d="M482 982h236v-388h390v-206h-390v-388h-236v388h-388v206h388v388z" />
    <glyph glyph-name="plusminus.tf" 
d="M508 1098h184v-306h278v-152h-278v-304h-184v304h-278v152h278v306zM246 178h710v-178h-710v178z" />
    <glyph glyph-name="uni20A8.tf" 
d="M137 1166v132h926v-132h-926zM137 844v134h926v-134h-926zM137 626h194l648 -626h-330l-512 492v134zM215 626h60q174 0 253 77.5t79 192.5q0 116 -79 193t-253 77h-60v94h60q194 0 324.5 -46t196 -128t65.5 -190q0 -115 -57.5 -206.5t-186.5 -144.5t-342 -53h-60v134z
" />
    <glyph glyph-name="seven.dnom" horiz-adv-x="633" 
d="M72 0l358 644h-382v138h550v-136l-335 -646h-191z" />
    <glyph glyph-name="seven.numr" horiz-adv-x="633" 
d="M72 600l358 644h-382v138h550v-136l-335 -646h-191z" />
    <glyph glyph-name="seven.tf" 
d="M140 1298h912v-226l-554 -1072h-318l594 1070h-634v228z" />
    <glyph glyph-name="six.dnom" horiz-adv-x="808" 
d="M425 -28q-97 0 -172 51.5t-117 140t-42 202.5q0 201 93 311t246 110q117 0 190.5 -63t77.5 -167h-151q-6 46 -33.5 73.5t-78.5 27.5q-93 0 -147.5 -82t-54.5 -222q0 -18 1 -39t4 -40q10 74 42.5 116t79 59.5t97.5 17.5q111 0 180.5 -69.5t69.5 -178.5q0 -111 -79 -179.5
t-206 -68.5zM425 102q58 0 97.5 34t39.5 90q0 59 -39.5 92.5t-97.5 33.5q-55 0 -95 -35t-40 -91t40 -90t95 -34z" />
    <glyph glyph-name="six.numr" horiz-adv-x="808" 
d="M425 572q-97 0 -172 51.5t-117 140t-42 202.5q0 201 93 311t246 110q117 0 190.5 -63t77.5 -167h-151q-6 46 -33.5 73.5t-78.5 27.5q-93 0 -147.5 -82t-54.5 -222q0 -18 1 -39t4 -40q10 74 42.5 116t79 59.5t97.5 17.5q111 0 180.5 -69.5t69.5 -178.5q0 -111 -79 -179.5
t-206 -68.5zM425 702q58 0 97.5 34t39.5 90q0 59 -39.5 92.5t-97.5 33.5q-55 0 -95 -35t-40 -91t40 -90t95 -34z" />
    <glyph glyph-name="six.tf" 
d="M630 -28q-164 0 -288.5 85t-194 232.5t-69.5 336.5q0 223 70.5 379t197 237.5t294.5 81.5q129 0 227.5 -47.5t156 -133.5t62.5 -201h-250q-10 78 -56 123t-132 45q-154 0 -243 -135.5t-89 -368.5q0 -30 2 -65t4 -67q16 123 70 193t131.5 99.5t162.5 29.5q122 0 215.5 -53
t146 -146t52.5 -213q0 -123 -59.5 -216t-165.5 -144.5t-245 -51.5zM630 188q93 0 159.5 56.5t66.5 149.5q0 97 -66.5 152.5t-161.5 55.5q-61 0 -112 -26t-81.5 -73t-30.5 -109q0 -93 66.5 -149.5t159.5 -56.5z" />
    <glyph glyph-name="sterling.tf" 
d="M120 144v68q74 0 104 43t30 131v502q0 144 50.5 241t142.5 146t215 49q167 0 263.5 -88t120.5 -262h-232q-9 66 -49.5 101t-102.5 35q-76 0 -124 -54t-48 -168v-486q0 -132 -80 -195t-290 -63zM56 0v212h634q101 0 144 38.5t52 117.5h258q-6 -174 -107 -271t-345 -97
h-636zM90 562v158h742v-158h-742z" />
    <glyph glyph-name="three.dnom" horiz-adv-x="825" 
d="M413 -28q-83 0 -156.5 30t-120 88.5t-46.5 143.5h149q4 -61 51.5 -96.5t122.5 -35.5q73 0 115 34t42 85t-38.5 80t-119.5 29h-104v112h88q69 0 108 29.5t39 80.5q0 45 -33.5 75.5t-101.5 30.5q-55 0 -98 -22.5t-55 -77.5h-149q13 119 94.5 174t201.5 55q128 0 211 -61
t83 -158q0 -59 -33 -103.5t-96 -65.5q71 -25 113.5 -72.5t42.5 -118.5q0 -104 -85 -170t-225 -66z" />
    <glyph glyph-name="three.numr" horiz-adv-x="825" 
d="M413 572q-83 0 -156.5 30t-120 88.5t-46.5 143.5h149q4 -61 51.5 -96.5t122.5 -35.5q73 0 115 34t42 85t-38.5 80t-119.5 29h-104v112h88q69 0 108 29.5t39 80.5q0 45 -33.5 75.5t-101.5 30.5q-55 0 -98 -22.5t-55 -77.5h-149q13 119 94.5 174t201.5 55q128 0 211 -61
t83 -158q0 -59 -33 -103.5t-96 -65.5q71 -25 113.5 -72.5t42.5 -118.5q0 -104 -85 -170t-225 -66z" />
    <glyph glyph-name="three.tf" 
d="M608 -28q-103 0 -199 28t-172.5 83t-121.5 136.5t-45 188.5h250q4 -68 41 -117.5t100.5 -76t146.5 -26.5q121 0 190.5 56t69.5 142q0 56 -28.5 96.5t-86.5 62t-147 21.5h-174v186h148q113 0 178.5 49t65.5 133q0 75 -56.5 125.5t-169.5 50.5q-91 0 -162.5 -37t-89.5 -129
h-250q14 133 80.5 217t173 123.5t240.5 39.5q140 0 250 -46t174 -127.5t64 -188.5q0 -99 -54.5 -172.5t-159.5 -109.5q117 -40 187.5 -119t70.5 -197q0 -115 -64 -203.5t-179.5 -138.5t-270.5 -50z" />
    <glyph glyph-name="two.dnom" horiz-adv-x="818" 
d="M120 0v134q0 98 44.5 153.5t134.5 89.5l159 62q53 20 78 51t25 77q0 45 -33 76t-93 31t-99 -29.5t-45 -85.5h-157q1 80 41 133t106.5 79.5t150.5 26.5q79 0 143 -29.5t101.5 -83t37.5 -124.5q0 -91 -49.5 -149.5t-151.5 -98.5l-162 -62q-47 -18 -68 -40t-21 -58v-23h447
v-130h-589z" />
    <glyph glyph-name="two.numr" horiz-adv-x="818" 
d="M120 600v134q0 98 44.5 153.5t134.5 89.5l159 62q53 20 78 51t25 77q0 45 -33 76t-93 31t-99 -29.5t-45 -85.5h-157q1 80 41 133t106.5 79.5t150.5 26.5q79 0 143 -29.5t101.5 -83t37.5 -124.5q0 -91 -49.5 -149.5t-151.5 -98.5l-162 -62q-47 -18 -68 -40t-21 -58v-23
h447v-130h-589z" />
    <glyph glyph-name="two.tf" 
d="M108 0v222q0 109 32.5 184.5t98.5 128t165 91.5l266 102q87 35 128.5 86t41.5 126t-54 126.5t-156 51.5q-98 0 -163.5 -48.5t-74.5 -141.5h-262q3 133 68.5 221t177 131.5t250.5 43.5q131 0 237 -49.5t168.5 -138t62.5 -206.5q0 -100 -36.5 -176t-110 -133.5
t-185.5 -100.5l-270 -104q-78 -30 -113 -66.5t-35 -95.5v-38h742v-216h-978z" />
    <glyph glyph-name="yen.tf" 
d="M474 0v536l-432 762h280l294 -558h-44l306 558h280l-448 -762v-536h-236zM246 170v132h698v-132h-698zM246 384v132h698v-132h-698z" />
    <glyph glyph-name="zero.dnom" horiz-adv-x="836" 
d="M419 -28q-144 0 -234.5 100.5t-90.5 306.5q0 207 90.5 307.5t234.5 100.5q143 0 233.5 -100.5t90.5 -307.5q0 -206 -90.5 -306.5t-233.5 -100.5zM419 102q84 0 130.5 71.5t46.5 205.5q0 135 -46.5 207t-130.5 72q-85 0 -132 -72t-47 -207q0 -134 47 -205.5t132 -71.5z
" />
    <glyph glyph-name="zero.numr" horiz-adv-x="836" 
d="M419 572q-144 0 -234.5 100.5t-90.5 306.5q0 207 90.5 307.5t234.5 100.5q143 0 233.5 -100.5t90.5 -307.5q0 -206 -90.5 -306.5t-233.5 -100.5zM419 702q84 0 130.5 71.5t46.5 205.5q0 135 -46.5 207t-130.5 72q-85 0 -132 -72t-47 -207q0 -134 47 -205.5t132 -71.5z
" />
    <glyph glyph-name="zero.tf" 
d="M600 -28q-159 0 -280 74t-189.5 224t-68.5 378q0 229 68.5 379t189.5 223.5t280 73.5q158 0 279.5 -73.5t190 -223.5t68.5 -379q0 -228 -68.5 -378t-190 -224t-279.5 -74zM600 188q141 0 218.5 118.5t77.5 341.5t-77.5 342.5t-218.5 119.5q-140 0 -218 -119.5t-78 -342.5
t78 -341.5t218 -118.5z" />
    </font>
</defs>
</svg>
